• Ув. посетители! Регистрируемся! Только от вас зависит какому ресурсу администрация будет уделять больше времени.

Видео «Большие гастроли» в Пскове. [Театр им. Ленсовета]

admin

Супер активный
Команда форума
Сообщения
374
Симпатии
7
Баллы
43
#1

Название: «Большие гастроли» в Пскове. [Театр им. Ленсовета] [Россия1, Вести - Псков]
Жанр: Интервью, Репортаж
Гость: Актеры театра им. Ленсовета
Канал: Россия1, Вести, Псков
Дата выхода: 27.10.2017
Спектаклем "Город. Женитьба. Гоголь" театр им. Ленсовета открыл 4-й сезон «Больших гастролей» в Пскове. Они проходят в рамках специального проекта при поддержке Минкультуры.
General
Complete name : Театр им. Ленсовета открыл 4-й сезон «Больших гастролей» в Пскове. [Вести -Псков, 27.10.17].mp4
Format : MPEG-4
Format profile : Base Media
Codec ID : isom (isom)
File size : 38.1 MiB
Duration : 1 min
Overall bit rate : 2 846 kb/s
Encoded date : UTC 2017-10-26 20:26:42
Tagged date : UTC 2017-10-26 20:26:42

Video
ID : 1
Format : AVC
Format/Info : Advanced Video Codec
Format profile : High@L4
Format settings, CABAC : Yes
Format settings, ReFrames : 2 frames
Codec ID : avc1
Codec ID/Info : Advanced Video Coding
Duration : 1 min
Bit rate : 2 718 kb/s
Width : 1 920 pixels
Height : 1 080 pixels
Display aspect ratio : 16:9
Frame rate mode : Constant
Frame rate : 25.000 FPS
Color space : YUV
Chroma subsampling : 4:2:0
Bit depth : 8 bits
Scan type : Progressive
Bits/(Pixel*Frame) : 0.052
Stream size : 36.4 MiB (95%)
Tagged date : UTC 2017-10-26 20:26:42
Color range : Limited
Color primaries : BT.709
Transfer characteristics : BT.709
Matrix coefficients : BT.709

Audio
ID : 2
Format : AAC
Format/Info : Advanced Audio Codec
Format profile : LC
Codec ID : 40
Duration : 1 min
Bit rate mode : Constant
Bit rate : 126 kb/s
Channel(s) : 2 channels
Channel positions : Front: L R
Sampling rate : 44.1 kHz
Frame rate : 43.066 FPS (1024 spf)
Compression mode : Lossy
Stream size : 1.68 MiB (4%)
Default : Yes
Alternate group : 1
Tagged date : UTC 2017-10-26 20:26:42
Для просмотра содержимого вам необходимо авторизоваться.
 
Последнее редактирование:

admin

Супер активный
Команда форума
Сообщения
374
Симпатии
7
Баллы
43
#2

Название: «Большие гастроли» в Пскове. [Театр им. Ленсовета] [РенTV, Новости - Псков]
Жанр: Интервью, Репортаж
Гость: Актеры и руководство театра им. Ленсовета
Канал: РенTV, Новости, Псков
Дата выхода: 26.10.2017
General
Complete name : «Большие гастроли» в Пскове. [Театр им. Ленсовета] [РенTV, Новости - Псков] 26.10.17.mp4
Format : MPEG-4
Format profile : Base Media
Codec ID : isom (isom/iso2/avc1/mp41)
File size : 25.6 MiB
Duration : 1 min
Overall bit rate : 2 417 kb/s
Writing application : Lavf57.2.100

Video
ID : 1
Format : AVC
Format/Info : Advanced Video Codec
Format profile : High@L4
Format settings, CABAC : Yes
Format settings, ReFrames : 2 frames
Codec ID : avc1
Codec ID/Info : Advanced Video Coding
Duration : 1 min
Bit rate : 2 286 kb/s
Width : 1 920 pixels
Height : 1 080 pixels
Display aspect ratio : 16:9
Frame rate mode : Constant
Frame rate : 25.000 FPS
Color space : YUV
Chroma subsampling : 4:2:0
Bit depth : 8 bits
Scan type : Progressive
Bits/(Pixel*Frame) : 0.044
Stream size : 24.2 MiB (95%)
Color range : Limited
Color primaries : BT.709
Transfer characteristics : BT.709
Matrix coefficients : BT.709

Audio
ID : 2
Format : AAC
Format/Info : Advanced Audio Codec
Format profile : LC
Codec ID : 40
Duration : 1 min
Bit rate mode : Constant
Bit rate : 126 kb/s
Channel(s) : 2 channels
Channel positions : Front: L R
Sampling rate : 44.1 kHz
Frame rate : 43.066 FPS (1024 spf)
Compression mode : Lossy
Stream size : 1.33 MiB (5%)
Default : Yes
Alternate group : 1
Для просмотра содержимого вам необходимо авторизоваться.
 
Последнее редактирование:
Вверх Снизу