• Уважаемые пользователи! Фото, расположенные на яндек-фото временно недоступны для просмотра. Это связано с переездом на яндекс-диск. В данный момент наша тех. поддержка занята и поэтому все будет поправлено чуть позже.
  • Ув. посетители! Регистрируемся! Только от вас зависит какому ресурсу администрация будет уделять больше времени.

Видео Интервью «Тотальный диктант» [СПб., Таврический дворец][14.04.2018]

admin

Супер активный
Команда форума
Сообщения
363
Симпатии
0
Баллы
41
#1

Название: «Тотальный диктант» [СПб., Таврический дворец][14.04.2018][«канал Город+» ]
Жанр: Интервью, репортаж
Канал: Город+
Гость: Анна Ковальчук
Дата выхода: 14.04.2018
General
Complete name : «Тотальный диктант» [СПб., Таврический дворец][14.04.2018]\Видео\«Тотальный диктант» [СПб., Таврический дворец][14.04.2018][«канал Город+» ].mp4
Format : MPEG-4
Format profile : Base Media / Version 2
Codec ID : mp42 (isom/mp42)
File size : 11.6 MiB
Duration : 1 min
Overall bit rate mode : Variable
Overall bit rate : 1 122 kb/s
Encoded date : UTC 2018-04-17 22:01:28
Tagged date : UTC 2018-04-17 22:01:28
gsst : 0
gstd : 86889

Video
ID : 1
Format : AVC
Format/Info : Advanced Video Codec
Format profile : Main@L3.1
Format settings, CABAC : Yes
Format settings, ReFrames : 3 frames
Codec ID : avc1
Codec ID/Info : Advanced Video Coding
Duration : 1 min
Bit rate : 993 kb/s
Width : 1 280 pixels
Height : 720 pixels
Display aspect ratio : 16:9
Frame rate mode : Constant
Frame rate : 25.000 FPS
Color space : YUV
Chroma subsampling : 4:2:0
Bit depth : 8 bits
Scan type : Progressive
Bits/(Pixel*Frame) : 0.043
Stream size : 10.3 MiB (88%)
Title : ISO Media file produced by Google Inc. Created on: 04/17/2018.
Encoded date : UTC 2018-04-17 22:01:28
Tagged date : UTC 2018-04-17 22:01:28
Color range : Limited
Color primaries : BT.709
Transfer characteristics : BT.709
Matrix coefficients : BT.709

Audio
ID : 2
Format : AAC
Format/Info : Advanced Audio Codec
Format profile : LC
Codec ID : 40
Duration : 1 min
Bit rate mode : Variable
Bit rate : 126 kb/s
Channel(s) : 2 channels
Channel positions : Front: L R
Sampling rate : 44.1 kHz
Frame rate : 43.066 FPS (1024 spf)
Compression mode : Lossy
Stream size : 1.30 MiB (11%)
Title : ISO Media file produced by Google Inc. Created on: 04/17/2018.
Language : English
Encoded date : UTC 2018-04-17 22:01:28
Tagged date : UTC 2018-04-17 22:01:28
Для просмотра содержимого вам необходимо авторизоваться.
 
Последнее редактирование:

admin

Супер активный
Команда форума
Сообщения
363
Симпатии
0
Баллы
41
#2

Название: «Тотальный диктант» [СПб., Таврический дворец][14.04.2018][«канал Санкт-Петербург»] (1)
Жанр: Интервью, репортаж
Канал: Санкт-Петербург
Гость: Анна Ковальчук
Дата выхода: 14.04.2018
General
Complete name : «Тотальный диктант» [СПб., Таврический дворец][14.04.2018][«канал Санкт-Петербург»] (1).mp4
Format : MPEG-4
Format profile : Base Media
Codec ID : isom (isom/avc1)
File size : 43.4 MiB
Duration : 3 min
Overall bit rate mode : Variable
Overall bit rate : 1 661 kb/s
Encoded date : UTC 2018-04-14 15:46:49
Tagged date : UTC 2018-04-14 15:46:49

Video
ID : 1
Format : AVC
Format/Info : Advanced Video Codec
Format profile : High@L3.1
Format settings, CABAC : Yes
Format settings, ReFrames : 4 frames
Codec ID : avc1
Codec ID/Info : Advanced Video Coding
Duration : 3 min
Bit rate : 1 600 kb/s
Maximum bit rate : 3 408 kb/s
Width : 1 024 pixels
Height : 576 pixels
Display aspect ratio : 16:9
Frame rate mode : Constant
Frame rate : 25.000 FPS
Color space : YUV
Chroma subsampling : 4:2:0
Bit depth : 8 bits
Scan type : Progressive
Bits/(Pixel*Frame) : 0.109
Stream size : 40.9 MiB (94%)
Title : mp4.264@GPAC0.5.2-DEV-rev724-ge3fbf25-master
Writing library : x264 core 146 r2538 121396c
Encoding settings : cabac=1 / ref=3 / deblock=1:-1:-1 / analyse=0x3:0x113 / me=hex / subme=7 / psy=1 / psy_rd=1.00:0.15 / mixed_ref=1 / me_range=16 / chroma_me=1 / trellis=1 / 8x8dct=1 / cqm=0 / deadzone=21,11 / fast_pskip=1 / chroma_qp_offset=-3 / threads=12 / lookahead_threads=2 / sliced_threads=0 / nr=0 / decimate=1 / interlaced=0 / bluray_compat=0 / constrained_intra=0 / bframes=3 / b_pyramid=2 / b_adapt=1 / b_bias=0 / direct=1 / weightb=1 / open_gop=0 / weightp=2 / keyint=250 / keyint_min=25 / scenecut=40 / intra_refresh=0 / rc_lookahead=40 / rc=abr / mbtree=1 / bitrate=1600 / ratetol=1.0 / qcomp=0.60 / qpmin=0 / qpmax=69 / qpstep=4 / ip_ratio=1.40 / aq=1:1.00
Encoded date : UTC 2018-04-14 15:46:49
Tagged date : UTC 2018-04-14 15:46:50

Audio
ID : 2
Format : AAC
Format/Info : Advanced Audio Codec
Format profile : LC
Codec ID : 40
Duration : 3 min
Bit rate mode : Variable
Bit rate : 90.7 kb/s
Maximum bit rate : 97.9 kb/s
Channel(s) : 1 channel
Channel positions : Front: C
Sampling rate : 48.0 kHz
Frame rate : 46.875 FPS (1024 spf)
Compression mode : Lossy
Stream size : 2.37 MiB (5%)
Encoded date : UTC 2018-04-14 15:43:38
Tagged date : UTC 2018-04-14 15:46:50
Для просмотра содержимого вам необходимо авторизоваться.
 
Последнее редактирование:

admin

Супер активный
Команда форума
Сообщения
363
Симпатии
0
Баллы
41
#3

Название: «Тотальный диктант» [СПб., Таврический дворец][14.04.2018][«канал Санкт-Петербург»] (2)
Жанр: Интервью, репортаж
Канал: Санкт-Петербург
Гость: Анна Ковальчук
Дата выхода: 14.04.2018
General
Complete name : «Тотальный диктант» [СПб., Таврический дворец][14.04.2018][«канал Санкт-Петербург»] (2).mp4
Format : MPEG-4
Format profile : Base Media
Codec ID : isom (isom/avc1)
File size : 16.1 MiB
Duration : 1 min
Overall bit rate mode : Variable
Overall bit rate : 1 661 kb/s
Encoded date : UTC 2018-04-14 12:25:31
Tagged date : UTC 2018-04-14 12:25:31

Video
ID : 1
Format : AVC
Format/Info : Advanced Video Codec
Format profile : High@L3.1
Format settings, CABAC : Yes
Format settings, ReFrames : 4 frames
Codec ID : avc1
Codec ID/Info : Advanced Video Coding
Duration : 1 min
Bit rate : 1 600 kb/s
Maximum bit rate : 4 128 kb/s
Width : 1 024 pixels
Height : 576 pixels
Display aspect ratio : 16:9
Frame rate mode : Constant
Frame rate : 25.000 FPS
Color space : YUV
Chroma subsampling : 4:2:0
Bit depth : 8 bits
Scan type : Progressive
Bits/(Pixel*Frame) : 0.109
Stream size : 15.1 MiB (94%)
Title : mp4.264@GPAC0.5.2-DEV-rev724-ge3fbf25-master
Writing library : x264 core 146 r2538 121396c
Encoding settings : cabac=1 / ref=3 / deblock=1:-1:-1 / analyse=0x3:0x113 / me=hex / subme=7 / psy=1 / psy_rd=1.00:0.15 / mixed_ref=1 / me_range=16 / chroma_me=1 / trellis=1 / 8x8dct=1 / cqm=0 / deadzone=21,11 / fast_pskip=1 / chroma_qp_offset=-3 / threads=12 / lookahead_threads=2 / sliced_threads=0 / nr=0 / decimate=1 / interlaced=0 / bluray_compat=0 / constrained_intra=0 / bframes=3 / b_pyramid=2 / b_adapt=1 / b_bias=0 / direct=1 / weightb=1 / open_gop=0 / weightp=2 / keyint=250 / keyint_min=25 / scenecut=40 / intra_refresh=0 / rc_lookahead=40 / rc=abr / mbtree=1 / bitrate=1600 / ratetol=1.0 / qcomp=0.60 / qpmin=0 / qpmax=69 / qpstep=4 / ip_ratio=1.40 / aq=1:1.00
Encoded date : UTC 2018-04-14 12:25:31
Tagged date : UTC 2018-04-14 12:25:32

Audio
ID : 2
Format : AAC
Format/Info : Advanced Audio Codec
Format profile : LC
Codec ID : 40
Duration : 1 min
Bit rate mode : Variable
Bit rate : 91.5 kb/s
Maximum bit rate : 94.0 kb/s
Channel(s) : 1 channel
Channel positions : Front: C
Sampling rate : 48.0 kHz
Frame rate : 46.875 FPS (1024 spf)
Compression mode : Lossy
Stream size : 906 KiB (6%)
Encoded date : UTC 2018-04-14 12:24:32
Tagged date : UTC 2018-04-14 12:25:32
Для просмотра содержимого вам необходимо авторизоваться.
 
Последнее редактирование:
Вверх Снизу