• Ув. посетители! Регистрируемся! Только от вас зависит какому ресурсу администрация будет уделять больше времени.

Видео Премия «Национальный бестселлер» 2017 [«Нацбест»]

admin

Супер активный
Команда форума
Сообщения
374
Симпатии
7
Баллы
43
#1

Оригинальное название: Национальный бестселлер» 2017 [Награждение]
Жанр: Шоу
Продолжительность: 00:04:24
Качество: mp4
Разрешение: 1920x1080
Размер: 208 мб.
General
Complete name : Национальный бестселлер» 2017 [Награждение].mp4
Format : MPEG-4
Format profile : Base Media
Codec ID : isom (isom/iso2/avc1/mp41)
File size : 208 MiB
Duration : 4 min
Overall bit rate : 6 598 kb/s
Writing application : Lavf55.33.100

Video
ID : 1
Format : AVC
Format/Info : Advanced Video Codec
Format profile : High@L4
Format settings, CABAC : Yes
Format settings, ReFrames : 3 frames
Codec ID : avc1
Codec ID/Info : Advanced Video Coding
Duration : 4 min
Duration_FirstFrame : 40 ms
Bit rate : 6 469 kb/s
Width : 1 920 pixels
Height : 1 080 pixels
Display aspect ratio : 16:9
Frame rate mode : Constant
Frame rate : 25.000 FPS
Color space : YUV
Chroma subsampling : 4:2:0
Bit depth : 8 bits
Scan type : Progressive
Bits/(Pixel*Frame) : 0.125
Stream size : 204 MiB (98%)
Writing library : x264 core 142 r2455 021c0dc
Encoding settings : cabac=1 / ref=3 / deblock=1:0:0 / analyse=0x3:0x113 / me=hex / subme=7 / psy=1 / psy_rd=1.00:0.00 / mixed_ref=1 / me_range=16 / chroma_me=1 / trellis=1 / 8x8dct=1 / cqm=0 / deadzone=21,11 / fast_pskip=1 / chroma_qp_offset=-4 / threads=4 / lookahead_threads=1 / sliced_threads=0 / nr=0 / decimate=1 / interlaced=0 / bluray_compat=0 / constrained_intra=0 / bframes=0 / weightp=2 / keyint=250 / keyint_min=25 / scenecut=40 / intra_refresh=0 / rc=crf / mbtree=0 / crf=23.0 / qcomp=0.60 / qpmin=4 / qpmax=69 / qpstep=4 / ip_ratio=1.40 / aq=1:1.00

Audio
ID : 2
Format : AAC
Format/Info : Advanced Audio Codec
Format profile : LC
Codec ID : 40
Duration : 4 min
Bit rate mode : Constant
Bit rate : 128 kb/s
Channel(s) : 2 channels
Channel positions : Front: L R
Sampling rate : 48.0 kHz
Frame rate : 46.875 FPS (1024 spf)
Compression mode : Lossy
Stream size : 4.04 MiB (2%)
Default : Yes
Alternate group : 1
Для просмотра содержимого вам необходимо авторизоваться.
 
Последнее редактирование:

admin

Супер активный
Команда форума
Сообщения
374
Симпатии
7
Баллы
43
#2
Национальный бестселлер» 2017 [Интервью] - 5 канал

Оригинальное название: Национальный бестселлер» 2017 [Интервью] - 5 канал
Жанр: Интервью
Продолжительность: 00:00:30
Качество: mp4
Разрешение: 720x540
Размер: 19,3 мб.
General
Complete name : Национальный бестселлер» 2017 [Интервью] - 5 канал.mp4
Format : MPEG-4
Format profile : Base Media / Version 2
Codec ID : mp42 (mp42/mp41)
File size : 19.4 MiB
Duration : 30 s 560 ms
Overall bit rate mode : Variable
Overall bit rate : 5 324 kb/s
Encoded date : UTC 2017-06-03 18:43:31
Tagged date : UTC 2017-06-03 18:43:31
©TIM : 04:26:00:06
©TSC : 25
©TSZ : 1

Video
ID : 1
Format : AVC
Format/Info : Advanced Video Codec
Format profile : High@L4.2
Format settings, CABAC : Yes
Format settings, ReFrames : 4 frames
Format settings, GOP : M=3, N=25
Codec ID : avc1
Codec ID/Info : Advanced Video Coding
Duration : 30 s 560 ms
Bit rate mode : Variable
Bit rate : 5 000 kb/s
Maximum bit rate : 6 000 kb/s
Width : 720 pixels
Height : 540 pixels
Display aspect ratio : 4:3
Frame rate mode : Constant
Frame rate : 25.000 FPS
Standard : PAL
Color space : YUV
Chroma subsampling : 4:2:0
Bit depth : 8 bits
Scan type : Progressive
Bits/(Pixel*Frame) : 0.514
Stream size : 18.2 MiB (94%)
Language : English
Encoded date : UTC 2017-06-03 18:43:31
Tagged date : UTC 2017-06-03 18:43:31
Color range : Limited
Color primaries : BT.601 NTSC
Transfer characteristics : BT.601
Matrix coefficients : BT.601

Audio
ID : 2
Format : AAC
Format/Info : Advanced Audio Codec
Format profile : LC
Codec ID : 40
Duration : 30 s 560 ms
Source duration : 30 s 613 ms
Bit rate mode : Variable
Bit rate : 317 kb/s
Maximum bit rate : 353 kb/s
Channel(s) : 2 channels
Channel positions : Front: L R
Sampling rate : 48.0 kHz
Frame rate : 46.875 FPS (1024 spf)
Compression mode : Lossy
Stream size : 1.16 MiB (6%)
Source stream size : 1.16 MiB (6%)
Language : English
Encoded date : UTC 2017-06-03 18:43:31
Tagged date : UTC 2017-06-03 18:43:31
Для просмотра содержимого вам необходимо авторизоваться.
 
Последнее редактирование:
Вверх Снизу