• Ув. посетители! Регистрируемся! Только от вас зависит какому ресурсу администрация будет уделять больше времени.

Видео «St-Petersburg’s Dance Holidays - 2009» [28-29.08.2009]

admin

Супер активный
Команда форума
Сообщения
374
Симпатии
7
Баллы
43
#1


Название: «St-Petersburg’s Dance Holidays - 2009» [28-29.08.2009]
Жанр: Шоу, танцы
Гость: Анна Ковальчук
Организаторы мероприятия: Андрей Бущик, Валерия Бушуева, Виталий Головин, Aлёна Ваганова
Дата выхода: 28-29.08.2009
Танцевальное мероприятие для поклонников движения « Pro-Am », а так же для танцоров-любителей – Открытый фестиваль.
В великолепном «Театральном зале» пройдут соревнования в программе «Pro-Аm» и танцоров-любителей, а так же Гала-шоу с участием лучших российских профессиональных дуэтов в латино-американской, европейской программах и исполнителей аргентинского танго.
General
Complete name : «St-Petersburg’s Dance Holidays - 2009» [28-29.08.2009].mp4
Format : MPEG-4
Format profile : Base Media
Codec ID : isom (isom)
File size : 32.1 MiB
Duration : 1 min
Overall bit rate mode : Variable
Overall bit rate : 4 233 kb/s
Encoded date : UTC 2018-04-04 21:23:34
Tagged date : UTC 2018-04-04 21:23:34

Video
ID : 1
Format : AVC
Format/Info : Advanced Video Codec
Format profile : High@L4
Format settings, CABAC : Yes
Format settings, ReFrames : 2 frames
Codec ID : avc1
Codec ID/Info : Advanced Video Coding
Duration : 1 min
Bit rate : 4 103 kb/s
Maximum bit rate : 1 074 kb/s
Width : 1 920 pixels
Height : 1 080 pixels
Display aspect ratio : 16:9
Frame rate mode : Constant
Frame rate : 29.970 (30000/1001) FPS
Color space : YUV
Chroma subsampling : 4:2:0
Bit depth : 8 bits
Scan type : Progressive
Bits/(Pixel*Frame) : 0.066
Stream size : 31.1 MiB (97%)
Tagged date : UTC 2018-04-04 21:23:34
Color range : Limited
Color primaries : BT.709
Transfer characteristics : BT.709
Matrix coefficients : BT.709

Audio
ID : 2
Format : AAC
Format/Info : Advanced Audio Codec
Format profile : LC
Codec ID : 40
Duration : 1 min
Bit rate mode : Variable
Bit rate : 126 kb/s
Maximum bit rate : 133 kb/s
Channel(s) : 2 channels
Channel positions : Front: L R
Sampling rate : 44.1 kHz
Frame rate : 43.066 FPS (1024 spf)
Compression mode : Lossy
Stream size : 975 KiB (3%)
Encoded date : UTC 2018-04-04 21:23:34
Tagged date : UTC 2018-04-04 21:23:34
Для просмотра содержимого вам необходимо авторизоваться.
 
Последнее редактирование:
Вверх Снизу