• Ув. посетители! Регистрируемся! Только от вас зависит какому ресурсу администрация будет уделять больше времени.

Видео Т/П - «Ближний круг» - Юрий Бутусов [tvkultura, 4.03.2018]

mrcelebs

Неизвестный
Новенький
Сообщения
5
Симпатии
0
Баллы
1
#1

Название: Т/П - «Ближний круг» - Юрий Бутусов [tvkultura, 4.03.2018]
Жанр: Интервью
Гость: Актеры театра им. Ленсовета [Санкт-Петербург]
Канал: РоссияК
Дата выхода:
04.03.2018
Очередной выпуск программы "Ближний круг" снимался в Санкт-Петербурге. И его главный герой – один из самых востребованных и успешных режиссеров современного театра, человек, который, как правило, сторонится публичности, но в этот раз сделал исключение, главный режиссёр Санкт-Петербургского академического театра имени Ленсовета Юрий Бутусов.
General
Complete name : ТП - Ближний круг - Юрий Бутусов [tvkultura, 4.03.2018].mp4
Format : MPEG-4
Codec ID : M4V (isom/avc1/mp42)
File size : 484 MiB
Duration : 52 min
Overall bit rate mode : Variable
Overall bit rate : 1 299 kb/s
Encoded date : UTC 2018-03-04 15:46:19
Tagged date : UTC 2018-03-04 15:46:19

Video
ID : 1
Format : AVC
Format/Info : Advanced Video Codec
Format profile : Main@L3.1
Format settings, CABAC : Yes
Format settings, ReFrames : 2 frames
Codec ID : avc1
Codec ID/Info : Advanced Video Coding
Duration : 52 min
Bit rate mode : Variable
Bit rate : 1 200 kb/s
Maximum bit rate : 2 000 kb/s
Width : 960 pixels
Height : 540 pixels
Display aspect ratio : 16:9
Frame rate mode : Constant
Frame rate : 25.000 FPS
Color space : YUV
Chroma subsampling : 4:2:0
Bit depth : 8 bits
Scan type : Progressive
Bits/(Pixel*Frame) : 0.093
Stream size : 447 MiB (92%)
Encoded date : UTC 2018-03-04 15:46:19
Tagged date : UTC 2018-03-04 15:46:19

Audio
ID : 2
Format : AAC
Format/Info : Advanced Audio Codec
Format profile : LC
Codec ID : 40
Duration : 52 min
Bit rate mode : Constant
Bit rate : 96.0 kb/s
Channel(s) : 2 channels
Channel positions : Front: L R
Sampling rate : 48.0 kHz
Frame rate : 46.875 FPS (1024 spf)
Compression mode : Lossy
Stream size : 34.8 MiB (7%)
Encoded date : UTC 2018-03-04 15:46:19
Tagged date : UTC 2018-03-04 15:46:19
Для просмотра содержимого вам необходимо авторизоваться.
 
Последнее редактирование модератором:
Вверх Снизу