• Ув. посетители! Регистрируемся! Только от вас зависит какому ресурсу администрация будет уделять больше времени.

Видео Т/П «Интервью» - телекомпания «АФОНТОВО», Красноярск [09.07.2017]

admin

Супер активный
Команда форума
Сообщения
374
Симпатии
7
Баллы
43
#1

Название: Т/П «Интервью» - телекомпания «АФОНТОВО», Красноярск [09.07.2017]
Жанр: Интервью
Гость: Анна Ковальчук
Ведущая: Клавдия Стельмахович
Канал: «АФОНТОВО»
Город: Красноярск [09.07.2017]
General
Complete name : ТП «Интервью» - телекомпания АФОНТОВО, Красноярск [09.07.2017].mp4
Format : MPEG-4
Format profile : Base Media
Codec ID : isom (isom/iso2/avc1/mp41)
File size : 85.8 MiB
Duration : 26 min
Overall bit rate mode : Variable
Overall bit rate : 458 kb/s
Writing application : Lavf55.33.100

Video
ID : 1
Format : AVC
Format/Info : Advanced Video Codec
Format profile : High@L3
Format settings, CABAC : Yes
Format settings, ReFrames : 3 frames
Codec ID : avc1
Codec ID/Info : Advanced Video Coding
Duration : 26 min
Bit rate : 331 kb/s
Width : 600 pixels
Height : 480 pixels
Display aspect ratio : 5:4
Frame rate mode : Variable
Frame rate : 25.000 FPS
Minimum frame rate : 8.333 FPS
Maximum frame rate : 25.000 FPS
Color space : YUV
Chroma subsampling : 4:2:0
Bit depth : 8 bits
Scan type : Progressive
Bits/(Pixel*Frame) : 0.046
Stream size : 62.0 MiB (72%)
Writing library : x264 core 142 r2455 021c0dc
Encoding settings : cabac=1 / ref=3 / deblock=1:0:0 / analyse=0x3:0x113 / me=hex / subme=7 / psy=1 / psy_rd=1.00:0.00 / mixed_ref=1 / me_range=16 / chroma_me=1 / trellis=1 / 8x8dct=1 / cqm=0 / deadzone=21,11 / fast_pskip=1 / chroma_qp_offset=-4 / threads=4 / lookahead_threads=1 / sliced_threads=0 / nr=0 / decimate=1 / interlaced=0 / bluray_compat=0 / constrained_intra=0 / bframes=0 / weightp=2 / keyint=250 / keyint_min=25 / scenecut=40 / intra_refresh=0 / rc=crf / mbtree=0 / crf=23.0 / qcomp=0.60 / qpmin=4 / qpmax=69 / qpstep=4 / ip_ratio=1.40 / aq=1:1.00

Audio
ID : 2
Format : AAC
Format/Info : Advanced Audio Codec
Format profile : LC
Codec ID : 40
Duration : 26 min
Bit rate mode : Variable
Bit rate : 125 kb/s
Maximum bit rate : 128 kb/s
Channel(s) : 2 channels
Channel positions : Front: L R
Sampling rate : 48.0 kHz
Frame rate : 46.875 FPS (1024 spf)
Compression mode : Lossy
Stream size : 23.3 MiB (27%)
Default : Yes
Alternate group : 1
Для просмотра содержимого вам необходимо авторизоваться.
 
Последнее редактирование:
Вверх Снизу