• Ув. посетители! Регистрируемся! Только от вас зависит какому ресурсу администрация будет уделять больше времени.

Видео Т/П «Субботник» - 2011 - [С ведущей Анной Ковальчук]

admin

Супер активный
Команда форума
Сообщения
374
Симпатии
7
Баллы
43
#1

Название: Т/П «Субботник» - 2011 - Илья Резник - 8.01.2011
Дата выхода: 8.01.2011
Страна: Россия, ВГТРК Россия - 1
Жанр: Интервью
Передачу ведет: А́нна Леони́довна Ковальчу́к - Российская актриса театра и кино, заслуженная артистка Российской Федерации (2008)
Хозяин субботника: Илья Рахмиэлевич (Леопольдович) Резник — советский и российский поэт-песенник, народный артист России (2003). Почётный член Российской академии художеств. Народный артист Украины (2013).

О программе: Каждую субботу у всех зрителей есть замечательная возможность побывать в гостях у своего кумира. Ведущая Анна Ковальчук расскажет и покажет, как живут звезды вне сцены и съемочной площадки.
General
Complete name : ТП - Субботник - Илья Резник - 2011-01-08.wmv
Format : Windows Media
File size : 131 MiB
Duration : 30 min
Overall bit rate mode : Variable
Overall bit rate : 600 kb/s
Maximum Overall bit rate : 1 529 kb/s
Encoded date : UTC 2011-01-08 14:10:44.621

Video
ID : 2
Format : VC-1
Format profile : MP@ML
Codec ID : WMV3
Codec ID/Info : Windows Media Video 9
Codec ID/Hint : WMV3
Description of the codec : Windows Media Video 9
Duration : 30 min
Bit rate mode : Variable
Bit rate : 571 kb/s
Width : 720 pixels
Height : 576 pixels
Display aspect ratio : 5:4
Frame rate : 25.000 FPS
Standard : PAL
Color space : YUV
Chroma subsampling : 4:2:0
Bit depth : 8 bits
Scan type : Progressive
Compression mode : Lossy
Bits/(Pixel*Frame) : 0.055
Stream size : 125 MiB (95%)
Language : English (US)

Audio
ID : 1
Format : WMA
Format version : Version 2
Codec ID : 161
Codec ID/Info : Windows Media Audio
Description of the codec : Windows Media Audio 9.2 - 20 kbps, 44 kHz, mono 1-pass CBR
Duration : 30 min
Bit rate mode : Constant
Bit rate : 20.0 kb/s
Channel(s) : 1 channel
Sampling rate : 44.1 kHz
Bit depth : 16 bits
Stream size : 4.37 MiB (3%)
Language : English (US)
Для просмотра содержимого вам необходимо авторизоваться.
 
Последнее редактирование:

admin

Супер активный
Команда форума
Сообщения
374
Симпатии
7
Баллы
43
#2

Название: Т/П «Субботник» - 2011 - Анна Банщикова - 15.01.2011
Дата выхода: 15.01.2011
Страна: Россия, ВГТРК Россия - 1
Жанр: Интервью
Передачу ведет: А́нна Леони́довна Ковальчу́к - Российская актриса театра и кино, заслуженная артистка Российской Федерации (2008)
Хозяин субботника: Анна Борисовна Банщикова — российская актриса театра и кино.

О программе: Каждую субботу у всех зрителей есть замечательная возможность побывать в гостях у своего кумира. Ведущая Анна Ковальчук расскажет и покажет, как живут звезды вне сцены и съемочной площадки.
General
Complete name : ТП - Субботник - Анна Банщикова - 2011-01-15.wmv
Format : Windows Media
File size : 128 MiB
Duration : 29 min
Overall bit rate mode : Variable
Overall bit rate : 600 kb/s
Maximum Overall bit rate : 1 529 kb/s
Encoded date : UTC 2011-01-15 18:43:09.864

Video
ID : 2
Format : VC-1
Format profile : MP@ML
Codec ID : WMV3
Codec ID/Info : Windows Media Video 9
Codec ID/Hint : WMV3
Description of the codec : Windows Media Video 9
Duration : 29 min
Bit rate mode : Variable
Bit rate : 571 kb/s
Width : 720 pixels
Height : 576 pixels
Display aspect ratio : 5:4
Frame rate : 25.000 FPS
Standard : PAL
Color space : YUV
Chroma subsampling : 4:2:0
Bit depth : 8 bits
Scan type : Progressive
Compression mode : Lossy
Bits/(Pixel*Frame) : 0.055
Stream size : 121 MiB (95%)
Language : English (US)

Audio
ID : 1
Format : WMA
Format version : Version 2
Codec ID : 161
Codec ID/Info : Windows Media Audio
Description of the codec : Windows Media Audio 9.2 - 20 kbps, 44 kHz, mono 1-pass CBR
Duration : 29 min
Bit rate mode : Constant
Bit rate : 20.0 kb/s
Channel(s) : 1 channel
Sampling rate : 44.1 kHz
Bit depth : 16 bits
Stream size : 4.25 MiB (3%)
Language : English (US)
Для просмотра содержимого вам необходимо авторизоваться.
 
Последнее редактирование:

admin

Супер активный
Команда форума
Сообщения
374
Симпатии
7
Баллы
43
#3

Название: Т/П «Субботник» - 2011 - Полина Гагарина - 22.01.2011
Дата выхода: 22.01.2011
Страна: Россия, ВГТРК Россия - 1
Жанр: Интервью
Передачу ведет: А́нна Леони́довна Ковальчу́к - Российская актриса театра и кино, заслуженная артистка Российской Федерации (2008)
Хозяин субботника: Полина Сергеевна Гагарина — российская поп-певица, композитор, актриса, модель. Представительница России на музыкальном конкурсе «Евровидение-2015», занявшая второе место.

О программе: Каждую субботу у всех зрителей есть замечательная возможность побывать в гостях у своего кумира. Ведущая Анна Ковальчук расскажет и покажет, как живут звезды вне сцены и съемочной площадки.
General
Complete name : ТП - Субботник - Полина Гагарина - 2011-01-22.wmv
Format : Windows Media
File size : 130 MiB
Duration : 30 min
Overall bit rate mode : Variable
Overall bit rate : 600 kb/s
Maximum Overall bit rate : 1 529 kb/s
Encoded date : UTC 2011-01-22 13:07:04.590

Video
ID : 2
Format : VC-1
Format profile : MP@ML
Codec ID : WMV3
Codec ID/Info : Windows Media Video 9
Codec ID/Hint : WMV3
Description of the codec : Windows Media Video 9
Duration : 30 min
Bit rate mode : Variable
Bit rate : 571 kb/s
Width : 720 pixels
Height : 576 pixels
Display aspect ratio : 5:4
Frame rate : 25.000 FPS
Standard : PAL
Color space : YUV
Chroma subsampling : 4:2:0
Bit depth : 8 bits
Scan type : Progressive
Compression mode : Lossy
Bits/(Pixel*Frame) : 0.055
Stream size : 123 MiB (95%)
Language : English (US)

Audio
ID : 1
Format : WMA
Format version : Version 2
Codec ID : 161
Codec ID/Info : Windows Media Audio
Description of the codec : Windows Media Audio 9.2 - 20 kbps, 44 kHz, mono 1-pass CBR
Duration : 30 min
Bit rate mode : Constant
Bit rate : 20.0 kb/s
Channel(s) : 1 channel
Sampling rate : 44.1 kHz
Bit depth : 16 bits
Stream size : 4.32 MiB (3%)
Language : English (US)
Для просмотра содержимого вам необходимо авторизоваться.
 
Последнее редактирование:

admin

Супер активный
Команда форума
Сообщения
374
Симпатии
7
Баллы
43
#4



Название: Т/П «Субботник» - 2011 - Илья Носков - 29.01.2011
Дата выхода: 29.01.2011
Страна: Россия, ВГТРК Россия - 1
Жанр: Интервью
Передачу ведет: А́нна Леони́довна Ковальчу́к - Российская актриса театра и кино, заслуженная артистка Российской Федерации (2008)
Хозяин субботника: Илья Анатольевич Носков — российский актёр театра и кино.

О программе: Каждую субботу у всех зрителей есть замечательная возможность побывать в гостях у своего кумира. Ведущая Анна Ковальчук расскажет и покажет, как живут звезды вне сцены и съемочной площадки.
General
Complete name : ТП - Субботник - Илья Носков - 2011-01-29.wmv
Format : Windows Media
File size : 127 MiB
Duration : 29 min
Overall bit rate mode : Variable
Overall bit rate : 600 kb/s
Maximum Overall bit rate : 1 529 kb/s
Encoded date : UTC 2011-01-29 20:30:51.847

Video
ID : 2
Format : VC-1
Format profile : MP@ML
Codec ID : WMV3
Codec ID/Info : Windows Media Video 9
Codec ID/Hint : WMV3
Description of the codec : Windows Media Video 9
Duration : 29 min
Bit rate mode : Variable
Bit rate : 571 kb/s
Width : 720 pixels
Height : 576 pixels
Display aspect ratio : 5:4
Frame rate : 25.000 FPS
Standard : PAL
Color space : YUV
Chroma subsampling : 4:2:0
Bit depth : 8 bits
Scan type : Progressive
Compression mode : Lossy
Bits/(Pixel*Frame) : 0.055
Stream size : 121 MiB (95%)
Language : English (US)

Audio
ID : 1
Format : WMA
Format version : Version 2
Codec ID : 161
Codec ID/Info : Windows Media Audio
Description of the codec : Windows Media Audio 9.2 - 20 kbps, 44 kHz, mono 1-pass CBR
Duration : 29 min
Bit rate mode : Constant
Bit rate : 20.0 kb/s
Channel(s) : 1 channel
Sampling rate : 44.1 kHz
Bit depth : 16 bits
Stream size : 4.25 MiB (3%)
Language : English (US)
Для просмотра содержимого вам необходимо авторизоваться.
 
Последнее редактирование:

admin

Супер активный
Команда форума
Сообщения
374
Симпатии
7
Баллы
43
#5



Название: Т/П «Субботник» - 2011 - Лариса Саванкова - 5.02.2011
Дата выхода: 5.02.2011
Страна: Россия, ВГТРК Россия - 1
Жанр: Интервью
Передачу ведет: А́нна Леони́довна Ковальчу́к - Российская актриса театра и кино, заслуженная артистка Российской Федерации (2008)
Хозяин субботника: Саванкова Лариса Алексеевна — актриса Русского драматического театра в Эстонии. С 1998 года — актриса антрепризы «ТеатрДом». В 2009 году награждена персональной премией и отличительным знаком «Благовест» за вклад в развитие Русского театрального искусства в Эстонии.

О программе: Каждую субботу у всех зрителей есть замечательная возможность побывать в гостях у своего кумира. Ведущая Анна Ковальчук расскажет и покажет, как живут звезды вне сцены и съемочной площадки.
General
Complete name : ТП - Субботник - Лариса Саванкова - 2011-02-05.wmv
Format : Windows Media
File size : 131 MiB
Duration : 30 min
Overall bit rate mode : Variable
Overall bit rate : 602 kb/s
Maximum Overall bit rate : 1 529 kb/s
Encoded date : UTC 2011-02-05 13:30:47.625

Video
ID : 2
Format : VC-1
Format profile : MP@ML
Codec ID : WMV3
Codec ID/Info : Windows Media Video 9
Codec ID/Hint : WMV3
Description of the codec : Windows Media Video 9
Duration : 30 min
Bit rate mode : Variable
Bit rate : 571 kb/s
Width : 720 pixels
Height : 576 pixels
Display aspect ratio : 5:4
Frame rate : 25.000 FPS
Standard : PAL
Color space : YUV
Chroma subsampling : 4:2:0
Bit depth : 8 bits
Scan type : Progressive
Compression mode : Lossy
Bits/(Pixel*Frame) : 0.055
Stream size : 124 MiB (95%)
Language : English (US)

Audio
ID : 1
Format : WMA
Format version : Version 2
Codec ID : 161
Codec ID/Info : Windows Media Audio
Description of the codec : Windows Media Audio 9.2 - 20 kbps, 44 kHz, mono 1-pass CBR
Duration : 30 min
Bit rate mode : Constant
Bit rate : 20.0 kb/s
Channel(s) : 1 channel
Sampling rate : 44.1 kHz
Bit depth : 16 bits
Stream size : 4.36 MiB (3%)
Language : English (US)
Для просмотра содержимого вам необходимо авторизоваться.
 
Последнее редактирование:

admin

Супер активный
Команда форума
Сообщения
374
Симпатии
7
Баллы
43
#6



Название: Т/П «Субботник» - 2011 - Николай Бандурин - 12.02.2011
Дата выхода: 12.02.2011
Страна: Россия, ВГТРК Россия - 1
Жанр: Интервью
Передачу ведет: А́нна Леони́довна Ковальчу́к - Российская актриса театра и кино, заслуженная артистка Российской Федерации (2008)
Хозяин субботника: Николай Юрьевич Бандурин — российский артист эстрады, куплетист, актёр, автор - исполнитель, лауреат Всероссийского конкурса артистов эстрады, заслуженный артист Российской Федерации.

О программе: Каждую субботу у всех зрителей есть замечательная возможность побывать в гостях у своего кумира. Ведущая Анна Ковальчук расскажет и покажет, как живут звезды вне сцены и съемочной площадки.
General
Complete name : ТП - Субботник - Николай Бандурин - 2011-02-12.wmv
Format : Windows Media
File size : 128 MiB
Duration : 29 min
Overall bit rate mode : Variable
Overall bit rate : 600 kb/s
Maximum Overall bit rate : 1 529 kb/s
Encoded date : UTC 2011-02-13 17:25:34.570

Video
ID : 2
Format : VC-1
Format profile : MP@ML
Codec ID : WMV3
Codec ID/Info : Windows Media Video 9
Codec ID/Hint : WMV3
Description of the codec : Windows Media Video 9
Duration : 29 min
Bit rate mode : Variable
Bit rate : 571 kb/s
Width : 720 pixels
Height : 576 pixels
Display aspect ratio : 5:4
Frame rate : 25.000 FPS
Standard : PAL
Color space : YUV
Chroma subsampling : 4:2:0
Bit depth : 8 bits
Scan type : Progressive
Compression mode : Lossy
Bits/(Pixel*Frame) : 0.055
Stream size : 122 MiB (95%)
Language : English (US)

Audio
ID : 1
Format : WMA
Format version : Version 2
Codec ID : 161
Codec ID/Info : Windows Media Audio
Description of the codec : Windows Media Audio 9.2 - 20 kbps, 44 kHz, mono 1-pass CBR
Duration : 29 min
Bit rate mode : Constant
Bit rate : 20.0 kb/s
Channel(s) : 1 channel
Sampling rate : 44.1 kHz
Bit depth : 16 bits
Stream size : 4.27 MiB (3%)
Language : English (US)
Для просмотра содержимого вам необходимо авторизоваться.
 
Последнее редактирование:

admin

Супер активный
Команда форума
Сообщения
374
Симпатии
7
Баллы
43
#7



Название: Т/П «Субботник» - 2011 - Никита Джигурда - 19.02.2011
Дата выхода: 19.02.2011
Страна: Россия, ВГТРК Россия - 1
Жанр: Интервью
Передачу ведет: А́нна Леони́довна Ковальчу́к - Российская актриса театра и кино, заслуженная артистка Российской Федерации (2008)
Хозяин субботника: Никита Борисович Джигурда (укр. Микита Борисович Джигурда) — советский и украинский актёр, кинорежиссёр, сценарист, исполнитель песен. Народный артист Чеченской Республики (2008), заслуженный артист Кабардино-Балкарской АССР (1987).

О программе: Каждую субботу у всех зрителей есть замечательная возможность побывать в гостях у своего кумира. Ведущая Анна Ковальчук расскажет и покажет, как живут звезды вне сцены и съемочной площадки.
General
Complete name : ТП - Субботник - Никита Джигурда - 2011-02-19.wmv
Format : Windows Media
File size : 129 MiB
Duration : 30 min
Overall bit rate mode : Variable
Overall bit rate : 601 kb/s
Maximum Overall bit rate : 1 529 kb/s
Encoded date : UTC 2011-02-19 13:34:20.572

Video
ID : 2
Format : VC-1
Format profile : MP@ML
Codec ID : WMV3
Codec ID/Info : Windows Media Video 9
Codec ID/Hint : WMV3
Description of the codec : Windows Media Video 9
Duration : 30 min
Bit rate mode : Variable
Bit rate : 571 kb/s
Width : 720 pixels
Height : 576 pixels
Display aspect ratio : 5:4
Frame rate : 25.000 FPS
Standard : PAL
Color space : YUV
Chroma subsampling : 4:2:0
Bit depth : 8 bits
Scan type : Progressive
Compression mode : Lossy
Bits/(Pixel*Frame) : 0.055
Stream size : 123 MiB (95%)
Language : English (US)

Audio
ID : 1
Format : WMA
Format version : Version 2
Codec ID : 161
Codec ID/Info : Windows Media Audio
Description of the codec : Windows Media Audio 9.2 - 20 kbps, 44 kHz, mono 1-pass CBR
Duration : 30 min
Bit rate mode : Constant
Bit rate : 20.0 kb/s
Channel(s) : 1 channel
Sampling rate : 44.1 kHz
Bit depth : 16 bits
Stream size : 4.30 MiB (3%)
Language : English (US)
Для просмотра содержимого вам необходимо авторизоваться.
 
Последнее редактирование:

admin

Супер активный
Команда форума
Сообщения
374
Симпатии
7
Баллы
43
#8



Название: Т/П «Субботник» - 2011 - Александра Флоринская - 26.02.2011
Дата выхода: 26.02.2011
Страна: Россия, ВГТРК Россия - 1
Жанр: Интервью
Передачу ведет: А́нна Леони́довна Ковальчу́к - Российская актриса театра и кино, заслуженная артистка Российской Федерации (2008)
Хозяин субботника: Александра Евгеньевна Флоринская - Буданова — российская актриса театра и кино.

О программе: Каждую субботу у всех зрителей есть замечательная возможность побывать в гостях у своего кумира. Ведущая Анна Ковальчук расскажет и покажет, как живут звезды вне сцены и съемочной площадки.
General
Complete name : ТП - Субботник - Александра Флоринская - 2011-02-26.wmv
Format : Windows Media
File size : 127 MiB
Duration : 29 min
Overall bit rate mode : Variable
Overall bit rate : 602 kb/s
Maximum Overall bit rate : 1 529 kb/s
Encoded date : UTC 2011-03-01 15:18:49.446

Video
ID : 2
Format : VC-1
Format profile : Main
Codec ID : WMV3
Codec ID/Info : Windows Media Video 9
Codec ID/Hint : WMV3
Duration : 29 min
Bit rate mode : Variable
Bit rate : 571 kb/s
Width : 720 pixels
Height : 576 pixels
Display aspect ratio : 5:4
Frame rate : 25.000 FPS
Standard : PAL
Color space : YUV
Chroma subsampling : 4:2:0
Bit depth : 8 bits
Scan type : Progressive
Compression mode : Lossy
Bits/(Pixel*Frame) : 0.055
Stream size : 121 MiB (95%)
Language : English (US)

Audio
ID : 1
Format : WMA
Format version : Version 2
Codec ID : 161
Codec ID/Info : Windows Media Audio
Duration : 29 min
Bit rate mode : Constant
Bit rate : 20.0 kb/s
Channel(s) : 1 channel
Sampling rate : 44.1 kHz
Bit depth : 16 bits
Stream size : 4.23 MiB (3%)
Language : English (US)

Other
Type : Time code
Format : WM TC
Time code of first frame : 00:00:00:00
Для просмотра содержимого вам необходимо авторизоваться.
 
Последнее редактирование:

admin

Супер активный
Команда форума
Сообщения
374
Симпатии
7
Баллы
43
#9



Название: Т/П «Субботник» - 2011 - Сосо Павлиашвили - 12.03.2011
Дата выхода: 12.03.2011
Страна: Россия, ВГТРК Россия - 1
Жанр: Интевью
Передачу ведет: А́нна Леони́довна Ковальчу́к - Российская актриса театра и кино, заслуженная артистка Российской Федерации (2008)
Хозяин субботника: Иосиф (Сосо) Раминович Павлиашвили — грузинский и российский певец, композитор, актёр кино и телевидения.

О программе: Каждую субботу у всех зрителей есть замечательная возможность побывать в гостях у своего кумира. Ведущая Анна Ковальчук расскажет и покажет, как живут звезды вне сцены и съемочной площадки.
General
Complete name : ТП - Субботник - Сосо Павлиашвили - 2011-03-12.wmv
Format : Windows Media
File size : 128 MiB
Duration : 29 min
Overall bit rate mode : Variable
Overall bit rate : 603 kb/s
Maximum Overall bit rate : 1 529 kb/s
Encoded date : UTC 2011-03-14 11:36:46.337

Video
ID : 2
Format : VC-1
Format profile : Main
Codec ID : WMV3
Codec ID/Info : Windows Media Video 9
Codec ID/Hint : WMV3
Duration : 29 min
Bit rate mode : Variable
Bit rate : 571 kb/s
Width : 720 pixels
Height : 576 pixels
Display aspect ratio : 5:4
Frame rate : 25.000 FPS
Standard : PAL
Color space : YUV
Chroma subsampling : 4:2:0
Bit depth : 8 bits
Scan type : Progressive
Compression mode : Lossy
Bits/(Pixel*Frame) : 0.055
Stream size : 121 MiB (95%)
Language : English (US)

Audio
ID : 1
Format : WMA
Format version : Version 2
Codec ID : 161
Codec ID/Info : Windows Media Audio
Duration : 29 min
Bit rate mode : Constant
Bit rate : 20.0 kb/s
Channel(s) : 1 channel
Sampling rate : 44.1 kHz
Bit depth : 16 bits
Stream size : 4.24 MiB (3%)
Language : English (US)

Other
Type : Time code
Format : WM TC
Time code of first frame : 00:00:00:00
Для просмотра содержимого вам необходимо авторизоваться.
 
Последнее редактирование:

admin

Супер активный
Команда форума
Сообщения
374
Симпатии
7
Баллы
43
#10



Название: Т/П «Субботник» - 2011 - Бари Алибасов - 19.03.2011
Дата выхода: 19.03.2011
Страна: Россия, ВГТРК Россия - 1
Жанр: Интевью
Передачу ведет: А́нна Леони́довна Ковальчу́к - Российская актриса театра и кино, заслуженная артистка Российской Федерации (2008)
Хозяин субботника: Бари Каримович (Борис Николаевич) Алибасов (каз. Бари Кәрімұлы Әлібасов тат. Bari Kərim uğlı Əlibasov, Бари Кәрим улы Әлибасов) — советский и российский музыкант, композитор, музыкальный продюсер, заслуженный артист России (1999). Казах по национальности.

О программе: Каждую субботу у всех зрителей есть замечательная возможность побывать в гостях у своего кумира. Ведущая Анна Ковальчук расскажет и покажет, как живут звезды вне сцены и съемочной площадки.
General
Complete name : ТП - Субботник - Бари Алибасовым - 2011-03-19.avi
Format : AVI
Format/Info : Audio Video Interleave
File size : 302 MiB
Duration : 27 min
Overall bit rate : 1 525 kb/s
Writing library : VirtualDub build 30080/release

Video
ID : 0
Format : MPEG-4 Visual
Format profile : Advanced Simple@L5
Format settings, BVOP : 2
Format settings, QPel : No
Format settings, GMC : No warppoints
Format settings, Matrix : Default (H.263)
Muxing mode : Packed bitstream
Codec ID : XVID
Codec ID/Hint : XviD
Duration : 27 min
Bit rate : 1 392 kb/s
Width : 640 pixels
Height : 480 pixels
Display aspect ratio : 4:3
Frame rate : 25.000 FPS
Color space : YUV
Chroma subsampling : 4:2:0
Bit depth : 8 bits
Scan type : Progressive
Compression mode : Lossy
Bits/(Pixel*Frame) : 0.181
Stream size : 275 MiB (91%)
Writing library : XviD 1.2.1 (UTC 2008-12-04)

Audio
ID : 1
Format : MPEG Audio
Format version : Version 1
Format profile : Layer 3
Mode : Joint stereo
Mode extension : MS Stereo
Codec ID : 55
Codec ID/Hint : MP3
Duration : 27 min
Bit rate mode : Constant
Bit rate : 128 kb/s
Channel(s) : 2 channels
Sampling rate : 48.0 kHz
Compression mode : Lossy
Delay relative to video : 9 ms
Stream size : 25.3 MiB (8%)
Alignment : Split accross interleaves
Interleave, duration : 16259 ms (406.47 video frames)
Writing library : LAME
Для просмотра содержимого вам необходимо авторизоваться.
 
Последнее редактирование:

admin

Супер активный
Команда форума
Сообщения
374
Симпатии
7
Баллы
43
#11



Название: Т/П «Субботник» - 2011 - Вика и Вадим Цыгановы - 26.03.2011
Дата выхода: 26.03.2011
Страна: Россия, ВГТРК Россия - 1
Жанр: Интевью
Передачу ведет: А́нна Леони́довна Ковальчу́к - Российская актриса театра и кино, заслуженная артистка Российской Федерации (2008)
Хозяин субботника: Виктория Юрьевна Цыганова (в девичестве Жукова) — советская и российская певица, актриса, композитор.

О программе: Каждую субботу у всех зрителей есть замечательная возможность побывать в гостях у своего кумира. Ведущая Анна Ковальчук расскажет и покажет, как живут звезды вне сцены и съемочной площадки.
General
Complete name : ТП - Субботник - Вика и Вадим Цыгановы - 2011-03-26.wmv
Format : Windows Media
File size : 210 MiB
Duration : 30 min
Overall bit rate mode : Variable
Overall bit rate : 976 kb/s
Maximum Overall bit rate : 2 075 kb/s
Encoded date : UTC 2011-03-26 14:14:22.236

Video
ID : 2
Format : VC-1
Format profile : Main
Codec ID : WMV3
Codec ID/Info : Windows Media Video 9
Codec ID/Hint : WMV3
Duration : 30 min
Bit rate mode : Variable
Bit rate : 900 kb/s
Width : 720 pixels
Height : 576 pixels
Display aspect ratio : 5:4
Frame rate : 25.000 FPS
Standard : PAL
Color space : YUV
Chroma subsampling : 4:2:0
Bit depth : 8 bits
Scan type : Progressive
Compression mode : Lossy
Bits/(Pixel*Frame) : 0.087
Stream size : 193 MiB (92%)
Language : Russian

Audio
ID : 1
Format : WMA
Format version : Version 2
Codec ID : 161
Codec ID/Info : Windows Media Audio
Duration : 30 min
Bit rate mode : Constant
Bit rate : 64.0 kb/s
Channel(s) : 2 channels
Sampling rate : 44.1 kHz
Bit depth : 16 bits
Stream size : 13.7 MiB (7%)
Language : Russian

Other
Type : Time code
Format : WM TC
Time code of first frame : 00:00:00:00
Для просмотра содержимого вам необходимо авторизоваться.
 
Последнее редактирование:

admin

Супер активный
Команда форума
Сообщения
374
Симпатии
7
Баллы
43
#12



Название: Т/П «Субботник» - 2011 - Анастасия Макеева и Глеб Матвейчук - 02.04.2011
Дата выхода: 02.04.2011
Страна: Россия, ВГТРК Россия - 1
Жанр: Интевью
Передачу ведет: А́нна Леони́довна Ковальчу́к - Российская актриса театра и кино, заслуженная артистка Российской Федерации (2008)
Хозяин субботника: Анастасия Васильевна Макеева — российская актриса, певица, фотомодель, телеведущая;
Глеб Алимович Матвейчук — российский актёр, композитор, продюсер, певец.

О программе: Каждую субботу у всех зрителей есть замечательная возможность побывать в гостях у своего кумира. Ведущая Анна Ковальчук расскажет и покажет, как живут звезды вне сцены и съемочной площадки.
General
Complete name : ТП - Субботник - Анастасия Макеева и Глеб Матвейчук - 2011-04-02.wmv
Format : Windows Media
File size : 213 MiB
Duration : 30 min
Overall bit rate mode : Variable
Overall bit rate : 977 kb/s
Maximum Overall bit rate : 2 075 kb/s
Encoded date : UTC 2011-04-03 12:37:53.111

Video
ID : 2
Format : VC-1
Format profile : Main
Codec ID : WMV3
Codec ID/Info : Windows Media Video 9
Codec ID/Hint : WMV3
Duration : 30 min
Bit rate mode : Variable
Bit rate : 900 kb/s
Width : 720 pixels
Height : 576 pixels
Display aspect ratio : 5:4
Frame rate : 25.000 FPS
Standard : PAL
Color space : YUV
Chroma subsampling : 4:2:0
Bit depth : 8 bits
Scan type : Progressive
Compression mode : Lossy
Bits/(Pixel*Frame) : 0.087
Stream size : 196 MiB (92%)
Language : Russian

Audio
ID : 1
Format : WMA
Format version : Version 2
Codec ID : 161
Codec ID/Info : Windows Media Audio
Duration : 30 min
Bit rate mode : Constant
Bit rate : 64.0 kb/s
Channel(s) : 2 channels
Sampling rate : 44.1 kHz
Bit depth : 16 bits
Stream size : 13.9 MiB (7%)
Language : Russian

Other
Type : Time code
Format : WM TC
Time code of first frame : 00:00:00:00
Для просмотра содержимого вам необходимо авторизоваться.
 
Последнее редактирование:

admin

Супер активный
Команда форума
Сообщения
374
Симпатии
7
Баллы
43
#13



Название: Т/П «Субботник» - 2011 - Наталья Гулькина - 09.04.2011
Дата выхода: 09.04.2011
Страна: Россия, ВГТРК Россия - 1
Жанр: Интевью
Передачу ведет: А́нна Леони́довна Ковальчу́к - Российская актриса театра и кино, заслуженная артистка Российской Федерации (2008)
Хозяин субботника: Наталия Валерьевна Гулькина (при рождении Наталия Валерьевна Кляренок) — советская и российская эстрадная певица, экс-солистка культовых советско-российских поп-групп «Мираж» и «Звёзды».

О программе: Каждую субботу у всех зрителей есть замечательная возможность побывать в гостях у своего кумира. Ведущая Анна Ковальчук расскажет и покажет, как живут звезды вне сцены и съемочной площадки.
General
Complete name : ТП - Субботник - Наталья Гулькина - 2011-04-09.wmv
Format : Windows Media
File size : 212 MiB
Duration : 30 min
Overall bit rate mode : Variable
Overall bit rate : 976 kb/s
Maximum Overall bit rate : 2 075 kb/s
Encoded date : UTC 2011-04-14 14:06:30.317

Video
ID : 2
Format : VC-1
Format profile : Main
Codec ID : WMV3
Codec ID/Info : Windows Media Video 9
Codec ID/Hint : WMV3
Duration : 30 min
Bit rate mode : Variable
Bit rate : 900 kb/s
Width : 720 pixels
Height : 576 pixels
Display aspect ratio : 5:4
Frame rate : 25.000 FPS
Standard : PAL
Color space : YUV
Chroma subsampling : 4:2:0
Bit depth : 8 bits
Scan type : Progressive
Compression mode : Lossy
Bits/(Pixel*Frame) : 0.087
Stream size : 196 MiB (92%)
Language : Russian

Audio
ID : 1
Format : WMA
Format version : Version 2
Codec ID : 161
Codec ID/Info : Windows Media Audio
Duration : 30 min
Bit rate mode : Constant
Bit rate : 64.0 kb/s
Channel(s) : 2 channels
Sampling rate : 44.1 kHz
Bit depth : 16 bits
Stream size : 13.9 MiB (7%)
Language : Russian

Other
Type : Time code
Format : WM TC
Time code of first frame : 00:00:00:00
Для просмотра содержимого вам необходимо авторизоваться.
 
Последнее редактирование:

admin

Супер активный
Команда форума
Сообщения
374
Симпатии
7
Баллы
43
#14



Название: Т/П «Субботник» - 2011 - Дмитрий Маликов - 16.04.2011
Дата выхода: 16.04.2011
Страна: Россия, ВГТРК Россия - 1
Жанр: Интевью
Передачу ведет: А́нна Леони́довна Ковальчу́к - Российская актриса театра и кино, заслуженная артистка Российской Федерации (2008)
Хозяин субботника: Дмитрий Юрьевич Маликов — советский и российский композитор, пианист, певец, актёр, продюсер и телеведущий. Народный артист Российской Федерации (2010).

О программе: Каждую субботу у всех зрителей есть замечательная возможность побывать в гостях у своего кумира. Ведущая Анна Ковальчук расскажет и покажет, как живут звезды вне сцены и съемочной площадки.
General
Complete name : ТП - Субботник - Дмитрий Маликов - 2011-04-16.avi
Format : AVI
Format/Info : Audio Video Interleave
File size : 377 MiB
Duration : 29 min
Overall bit rate : 1 762 kb/s
Writing application : VirtualDubModRus 1.5.10.2 (build 2542/release)
Writing library : VirtualDubMod build 2542/release

Video
ID : 0
Format : MPEG-4 Visual
Format profile : Advanced Simple@L5
Format settings, BVOP : 2
Format settings, QPel : No
Format settings, GMC : No warppoints
Format settings, Matrix : Default (H.263)
Muxing mode : Packed bitstream
Codec ID : XVID
Codec ID/Hint : XviD
Duration : 29 min
Bit rate : 1 497 kb/s
Width : 720 pixels
Height : 576 pixels
Display aspect ratio : 5:4
Frame rate : 25.000 FPS
Standard : PAL
Color space : YUV
Chroma subsampling : 4:2:0
Bit depth : 8 bits
Scan type : Progressive
Compression mode : Lossy
Bits/(Pixel*Frame) : 0.144
Stream size : 320 MiB (85%)
Writing library : XviD 1.2.1 (UTC 2008-12-04)

Audio
ID : 1
Format : AC-3
Format/Info : Audio Coding 3
Mode extension : CM (complete main)
Format settings, Endianness : Big
Codec ID : 2000
Duration : 29 min
Bit rate mode : Constant
Bit rate : 256 kb/s
Channel(s) : 2 channels
Channel positions : Front: L R
Sampling rate : 48.0 kHz
Frame rate : 31.250 FPS (1536 spf)
Compression mode : Lossy
Stream size : 54.8 MiB (15%)
Alignment : Aligned on interleaves
Interleave, duration : 40 ms (1.00 video frame)
Interleave, preload duratio : 512 ms
Для просмотра содержимого вам необходимо авторизоваться.
 
Последнее редактирование:

admin

Супер активный
Команда форума
Сообщения
374
Симпатии
7
Баллы
43
#15



Название: Т/П «Субботник» - 2011 - Алена Апина - 23.04.2011
Дата выхода:
23.04.2011
Страна: Россия, ВГТРК Россия - 1
Жанр: Интевью
Передачу ведет: А́нна Леони́довна Ковальчу́к - Российская актриса театра и кино, заслуженная артистка Российской Федерации (2008)
Хозяин субботника: Елена Евгеньевна Апина (более известна как Алёна Апина) — советская и российская эстрадная певица, композитор и поэтесса, заслуженная артистка России (2002), экс-солистка группы «Комбинация».

О программе: Каждую субботу у всех зрителей есть замечательная возможность побывать в гостях у своего кумира. Ведущая Анна Ковальчук расскажет и покажет, как живут звезды вне сцены и съемочной площадки.
General
Complete name : ТП - Субботник - Алена Апина - 2011-04-23.wmv
Format : Windows Media
File size : 213 MiB
Duration : 30 min
Overall bit rate mode : Variable
Overall bit rate : 976 kb/s
Maximum Overall bit rate : 2 075 kb/s
Encoded date : UTC 2011-04-23 13:46:32.591

Video
ID : 2
Format : VC-1
Format profile : Main
Codec ID : WMV3
Codec ID/Info : Windows Media Video 9
Codec ID/Hint : WMV3
Duration : 30 min
Bit rate mode : Variable
Bit rate : 900 kb/s
Width : 720 pixels
Height : 576 pixels
Display aspect ratio : 5:4
Frame rate : 25.000 FPS
Standard : PAL
Color space : YUV
Chroma subsampling : 4:2:0
Bit depth : 8 bits
Scan type : Progressive
Compression mode : Lossy
Bits/(Pixel*Frame) : 0.087
Stream size : 196 MiB (92%)
Language : Russian

Audio
ID : 1
Format : WMA
Format version : Version 2
Codec ID : 161
Codec ID/Info : Windows Media Audio
Duration : 30 min
Bit rate mode : Constant
Bit rate : 64.0 kb/s
Channel(s) : 2 channels
Sampling rate : 44.1 kHz
Bit depth : 16 bits
Stream size : 14.0 MiB (7%)
Language : Russian

Other
Type : Time code
Format : WM TC
Time code of first frame : 00:00:00:00
Для просмотра содержимого вам необходимо авторизоваться.
 
Последнее редактирование:

admin

Супер активный
Команда форума
Сообщения
374
Симпатии
7
Баллы
43
#16



Название: Т/П «Субботник» - 2011 - Михаил Зеленский - 30.04.2011
Дата выхода: 30.04.2011
Страна: Россия, ВГТРК Россия - 1
Жанр: Интевью
Передачу ведет: А́нна Леони́довна Ковальчу́к - Российская актриса театра и кино, заслуженная артистка Российской Федерации (2008)
Хозяин субботника: Михаил Владимирович Зеленский — российский журналист и телеведущий.

О программе: Каждую субботу у всех зрителей есть замечательная возможность побывать в гостях у своего кумира. Ведущая Анна Ковальчук расскажет и покажет, как живут звезды вне сцены и съемочной площадки.
General
Complete name : ТП - Субботник - Михаил Зеленский - 2011-04-30.wmv
Format : Windows Media
File size : 210 MiB
Duration : 30 min
Overall bit rate mode : Variable
Overall bit rate : 978 kb/s
Maximum Overall bit rate : 2 075 kb/s
Encoded date : UTC 2011-05-01 09:17:21.592

Video
ID : 2
Format : VC-1
Format profile : Main
Codec ID : WMV3
Codec ID/Info : Windows Media Video 9
Codec ID/Hint : WMV3
Duration : 30 min
Bit rate mode : Variable
Bit rate : 900 kb/s
Width : 720 pixels
Height : 576 pixels
Display aspect ratio : 5:4
Frame rate : 25.000 FPS
Standard : PAL
Color space : YUV
Chroma subsampling : 4:2:0
Bit depth : 8 bits
Scan type : Progressive
Compression mode : Lossy
Bits/(Pixel*Frame) : 0.087
Stream size : 193 MiB (92%)
Language : Russian

Audio
ID : 1
Format : WMA
Format version : Version 2
Codec ID : 161
Codec ID/Info : Windows Media Audio
Duration : 30 min
Bit rate mode : Constant
Bit rate : 64.0 kb/s
Channel(s) : 2 channels
Sampling rate : 44.1 kHz
Bit depth : 16 bits
Stream size : 13.8 MiB (7%)
Language : Russian

Other
Type : Time code
Format : WM TC
Time code of first frame : 00:00:00:00
Для просмотра содержимого вам необходимо авторизоваться.
 
Последнее редактирование:

admin

Супер активный
Команда форума
Сообщения
374
Симпатии
7
Баллы
43
#17



Название: Т/П «Субботник» - 2011 - Маргарита Суханкина - 07.05.2011
Дата выхода: 07.05.2011
Страна: Россия, ВГТРК Россия - 1
Жанр: Интевью
Передачу ведет: А́нна Леони́довна Ковальчу́к - Российская актриса театра и кино, заслуженная артистка Российской Федерации (2008)
Хозяин субботника: Маргарита Анатольевна Маруна (урожд. Суханкина) — советская и российская оперная (меццо-сопрано) и эстрадная певица.

О программе: Каждую субботу у всех зрителей есть замечательная возможность побывать в гостях у своего кумира. Ведущая Анна Ковальчук расскажет и покажет, как живут звезды вне сцены и съемочной площадки.
General
Complete name : ТП - Субботник - Маргарита Суханкина - 2011-05-07.wmv
Format : Windows Media
File size : 203 MiB
Duration : 30 min
Overall bit rate mode : Variable
Overall bit rate : 933 kb/s
Maximum Overall bit rate : 2 075 kb/s
Encoded date : UTC 2011-05-07 10:39:12.654

Video
ID : 2
Format : VC-1
Format profile : Main
Codec ID : WMV3
Codec ID/Info : Windows Media Video 9
Codec ID/Hint : WMV3
Duration : 30 min
Bit rate mode : Variable
Bit rate : 900 kb/s
Width : 720 pixels
Height : 576 pixels
Display aspect ratio : 5:4
Frame rate : 25.000 FPS
Standard : PAL
Color space : YUV
Chroma subsampling : 4:2:0
Bit depth : 8 bits
Scan type : Progressive
Compression mode : Lossy
Bits/(Pixel*Frame) : 0.087
Stream size : 196 MiB (96%)
Language : Russian

Audio
ID : 1
Format : WMA
Format version : Version 2
Codec ID : 161
Codec ID/Info : Windows Media Audio
Duration : 30 min
Bit rate mode : Constant
Bit rate : 64.0 kb/s
Channel(s) : 2 channels
Sampling rate : 44.1 kHz
Bit depth : 16 bits
Stream size : 14.0 MiB (7%)
Language : Russian

Other
Type : Time code
Format : WM TC
Time code of first frame : 00:00:00:00
Для просмотра содержимого вам необходимо авторизоваться.
 
Последнее редактирование:

admin

Супер активный
Команда форума
Сообщения
374
Симпатии
7
Баллы
43
#18



Название: Т/П «Субботник» - 2011 - Екатерина Жемчужная - 14.05.2011
Дата выхода: 14.05.2011
Страна: Россия, ВГТРК Россия - 1
Жанр: Интевью
Передачу ведет: А́нна Леони́довна Ковальчу́к - Российская актриса театра и кино, заслуженная артистка Российской Федерации (2008)
Хозяин субботника: Екатерина Андреевна Жемчужная (девичья фамилия Александрович) — артистка московского театра «Ромэн». Народная артистка РФ (1999).

О программе: Каждую субботу у всех зрителей есть замечательная возможность побывать в гостях у своего кумира. Ведущая Анна Ковальчук расскажет и покажет, как живут звезды вне сцены и съемочной площадки.
General
Complete name : ТП - Субботник - Екатерина Жемчужная - 2011-05-14.wmv
Format : Windows Media
File size : 212 MiB
Duration : 30 min
Overall bit rate mode : Variable
Overall bit rate : 977 kb/s
Maximum Overall bit rate : 2 075 kb/s
Encoded date : UTC 2011-05-14 09:23:12.658

Video
ID : 2
Format : VC-1
Format profile : Main
Codec ID : WMV3
Codec ID/Info : Windows Media Video 9
Codec ID/Hint : WMV3
Duration : 30 min
Bit rate mode : Variable
Bit rate : 900 kb/s
Width : 720 pixels
Height : 576 pixels
Display aspect ratio : 5:4
Frame rate : 25.000 FPS
Standard : PAL
Color space : YUV
Chroma subsampling : 4:2:0
Bit depth : 8 bits
Scan type : Progressive
Compression mode : Lossy
Bits/(Pixel*Frame) : 0.087
Stream size : 196 MiB (92%)
Language : Russian

Audio
ID : 1
Format : WMA
Format version : Version 2
Codec ID : 161
Codec ID/Info : Windows Media Audio
Duration : 30 min
Bit rate mode : Constant
Bit rate : 64.0 kb/s
Channel(s) : 2 channels
Sampling rate : 44.1 kHz
Bit depth : 16 bits
Stream size : 13.9 MiB (7%)
Language : Russian

Other
Type : Time code
Format : WM TC
Time code of first frame : 00:00:00:00
Для просмотра содержимого вам необходимо авторизоваться.
 
Последнее редактирование:

admin

Супер активный
Команда форума
Сообщения
374
Симпатии
7
Баллы
43
#19



Название: Т/П «Субботник» - 2011 - Диана Гурцкая - 21.05.2011
Дата выхода: 21.05.2011
Страна: Россия, ВГТРК Россия - 1
Жанр: Интевью
Передачу ведет: А́нна Леони́довна Ковальчу́к - Российская актриса театра и кино, заслуженная артистка Российской Федерации (2008)
Хозяин субботника: Диа́на Гуда́евна Гурцка́я (груз. დიანა ღურწკაია) — российская эстрадная певица и общественный деятель; Заслуженная артистка России (2006)[1]. Член Общественной палаты Российской Федерации, председатель Комиссии по поддержке семьи, детей и материнства.

О программе: Каждую субботу у всех зрителей есть замечательная возможность побывать в гостях у своего кумира. Ведущая Анна Ковальчук расскажет и покажет, как живут звезды вне сцены и съемочной площадки.
Нет информации!
Нет информации!
Если Вы располагаете данным материалом , то, пожалуйста, оставьте сообщение для администрации сайта. Будем очень признательны за помощь.
 
Последнее редактирование:

admin

Супер активный
Команда форума
Сообщения
374
Симпатии
7
Баллы
43
#20



Название: Т/П «Субботник» - 2011 - Аскольд Запашный - 28.05.2011
Дата выхода: 28.05.2011
Страна: Россия, ВГТРК Россия - 1
Жанр: Интевью
Передачу ведет: А́нна Леони́довна Ковальчу́к - Российская актриса театра и кино, заслуженная артистка Российской Федерации (2008)
Хозяин субботника: Аскольд Вальтерович Запашный — представитель цирковой династии Запашных в четвертом поколении. Заслуженный артист России (1999). Народный артист РФ (2012).

О программе: Каждую субботу у всех зрителей есть замечательная возможность побывать в гостях у своего кумира. Ведущая Анна Ковальчук расскажет и покажет, как живут звезды вне сцены и съемочной площадки.
General
Complete name : ТП - Субботник - Аскольд Запашный - 2011-05-28.wmv
Format : Windows Media
File size : 214 MiB
Duration : 30 min
Overall bit rate mode : Variable
Overall bit rate : 981 kb/s
Maximum Overall bit rate : 2 075 kb/s
Encoded date : UTC 2011-05-28 12:05:19.429

Video
ID : 2
Format : VC-1
Format profile : Main
Codec ID : WMV3
Codec ID/Info : Windows Media Video 9
Codec ID/Hint : WMV3
Duration : 30 min
Bit rate mode : Variable
Bit rate : 900 kb/s
Width : 720 pixels
Height : 576 pixels
Display aspect ratio : 5:4
Frame rate : 25.000 FPS
Standard : PAL
Color space : YUV
Chroma subsampling : 4:2:0
Bit depth : 8 bits
Scan type : Progressive
Compression mode : Lossy
Bits/(Pixel*Frame) : 0.087
Stream size : 196 MiB (92%)
Language : Russian

Audio
ID : 1
Format : WMA
Format version : Version 2
Codec ID : 161
Codec ID/Info : Windows Media Audio
Duration : 30 min
Bit rate mode : Constant
Bit rate : 64.0 kb/s
Channel(s) : 2 channels
Sampling rate : 44.1 kHz
Bit depth : 16 bits
Stream size : 14.0 MiB (7%)
Language : Russian

Other
Type : Time code
Format : WM TC
Time code of first frame : 00:00:00:00
Для просмотра содержимого вам необходимо авторизоваться.
 
Последнее редактирование:
Вверх Снизу