• Ув. посетители! Регистрируемся! Только от вас зависит какому ресурсу администрация будет уделять больше времени.

Видео Т/П «Судьба человека» [Россия-1, vgtrk.com]

admin

Супер активный
Команда форума
Сообщения
374
Симпатии
7
Баллы
43
#1

Название: Т/П «Судьба человека» [Россия-1, vgtrk.com] [11.12.2017]
Жанр: Интервью
Гость: Анна Ковальчук
Канал: Россия1
Дата выхода: 11.12.2017
General
Complete name : ТП «Судьба человека» [Россия-1, vgtrk.com] [11.12.2017].mp4
Format : MPEG-4
Format profile : Base Media / Version 2
Codec ID : mp42 (mp42/isom)
File size : 770 MiB
Duration : 52 min
Overall bit rate mode : Variable
Overall bit rate : 2 059 kb/s
Encoded date : UTC 2017-12-10 10:11:50
Tagged date : UTC 2017-12-10 10:11:50

Video
ID : 1
Format : AVC
Format/Info : Advanced Video Codec
Format profile : High@L4
Format settings, CABAC : Yes
Format settings, ReFrames : 2 frames
Format settings, GOP : M=3, N=60
Codec ID : avc1
Codec ID/Info : Advanced Video Coding
Duration : 52 min
Bit rate mode : Variable
Bit rate : 1 800 kb/s
Maximum bit rate : 2 400 kb/s
Width : 1 280 pixels
Height : 720 pixels
Display aspect ratio : 16:9
Frame rate mode : Constant
Frame rate : 25.000 FPS
Color space : YUV
Chroma subsampling : 4:2:0
Bit depth : 8 bits
Scan type : Progressive
Bits/(Pixel*Frame) : 0.078
Stream size : 673 MiB (87%)
Language : unk
Encoded date : UTC 2017-12-10 10:11:50
Tagged date : UTC 2017-12-10 10:11:50
Color range : Limited

Audio
ID : 2
Format : AAC
Format/Info : Advanced Audio Codec
Format profile : LC
Codec ID : 40
Duration : 52 min
Bit rate mode : Variable
Bit rate : 256 kb/s
Channel(s) : 2 channels
Channel positions : Front: L R
Sampling rate : 48.0 kHz
Frame rate : 46.875 FPS (1024 spf)
Compression mode : Lossy
Stream size : 95.7 MiB (12%)
Language : unk
Encoded date : UTC 2017-12-10 10:11:50
Tagged date : UTC 2017-12-10 10:11:50
Для просмотра содержимого вам необходимо авторизоваться.
 
Последнее редактирование:
Вверх Снизу