• Ув. посетители! Регистрируемся! Только от вас зависит какому ресурсу администрация будет уделять больше времени.

Видео Т/П - Утро на 5 [5-tv.ru]

admin

Супер активный
Команда форума
Сообщения
374
Симпатии
7
Баллы
43
#1

Название: ТП - Утро на 5
Жанр: Интервью, Телешоу, Юмор
Гость: Анна. Ковальчук
Канал: 5 канал, Спб
Дата выхода: 11.11.2014

О программе:
Вам больше не надо по утрам переключать каналы, чтобы узнать, что происходит на свете. Нет необходимости перещелкивать музыкальные радиостанции в ожидании выпуска новостей. Даже в интернет можно больше не заходить - пока вы спали, команда «Утра на 5» сделала всё за вас! Новое «Утро на 5» - доставка новостей к вашему завтраку!
General
Complete name :ТП Утро на 5 - Гость в студии – актриса Анна Ковальчук. от 11 11 14.mp4
Format : MPEG-4
Format profile : Base Media
Codec ID : isom (isom/iso2/avc1/mp41)
File size : 42.3 MiB
Duration : 11 min
Overall bit rate : 519 kb/s
Encoded date : UTC 1970-01-01 00:00:00
Tagged date : UTC 1970-01-01 00:00:00
Writing application : Lavf53.11.0

Video
ID : 1
Format : AVC
Format/Info : Advanced Video Codec
Format profile : Main@L3
Format settings, CABAC : Yes
Format settings, ReFrames : 3 frames
Codec ID : avc1
Codec ID/Info : Advanced Video Coding
Duration : 11 min
Bit rate : 448 kb/s
Width : 640 pixels
Height : 480 pixels
Display aspect ratio : 4:3
Frame rate mode : Constant
Frame rate : 25.000 FPS
Color space : YUV
Chroma subsampling : 4:2:0
Bit depth : 8 bits
Scan type : Progressive
Bits/(Pixel*Frame) : 0.058
Stream size : 36.5 MiB (86%)
Writing library : x264 core 116 r2044 392e762
Encoding settings : cabac=1 / ref=3 / deblock=1:0:0 / analyse=0x1:0x111 / me=hex / subme=7 / psy=1 / psy_rd=1.00:0.00 / mixed_ref=0 / me_range=16 / chroma_me=1 / trellis=1 / 8x8dct=0 / cqm=0 / deadzone=21,11 / fast_pskip=1 / chroma_qp_offset=-2 / threads=4 / sliced_threads=0 / nr=0 / decimate=1 / interlaced=0 / bluray_compat=0 / constrained_intra=0 / bframes=3 / b_pyramid=0 / b_adapt=1 / b_bias=0 / direct=1 / weightb=0 / open_gop=0 / weightp=2 / keyint=250 / keyint_min=25 / scenecut=40 / intra_refresh=0 / rc_lookahead=40 / rc=2pass / mbtree=1 / bitrate=448 / ratetol=1.0 / qcomp=0.60 / qpmin=0 / qpmax=69 / qpstep=4 / cplxblur=20.0 / qblur=0.5 / ip_ratio=1.40 / aq=1:1.00
Encoded date : UTC 1970-01-01 00:00:00
Tagged date : UTC 1970-01-01 00:00:00

Audio
ID : 2
Format : AAC
Format/Info : Advanced Audio Codec
Format profile : LC
Codec ID : 40
Duration : 11 min
Bit rate mode : Constant
Bit rate : 66.2 kb/s
Channel(s) : 2 channels
Channel(s)_Original : 1 channel
Channel positions : Front: C
Sampling rate : 44.1 kHz
Frame rate : 43.066 FPS (1024 spf)
Compression mode : Lossy
Stream size : 5.30 MiB (13%)
Encoded date : UTC 1970-01-01 00:00:00
Tagged date : UTC 1970-01-01 00:00:00
Для просмотра содержимого вам необходимо авторизоваться.
 
Последнее редактирование:

admin

Супер активный
Команда форума
Сообщения
374
Симпатии
7
Баллы
43
#2

Название: ТП - Утро на 5
Жанр: Интервью, Телешоу, Юмор
Гость: Анна. Ковальчук
Канал: 5 канал, Спб
Дата выхода: 16.12.2015

О программе:
Вам больше не надо по утрам переключать каналы, чтобы узнать, что происходит на свете. Нет необходимости перещелкивать музыкальные радиостанции в ожидании выпуска новостей. Даже в интернет можно больше не заходить - пока вы спали, команда «Утра на 5» сделала всё за вас! Новое «Утро на 5» - доставка новостей к вашему завтраку!
General
Complete name : ТП - Утро на 5 - 16.12.2015 - Гость программы Анна Ковальчук - 5-tv.ru\Гость программы заслуженная артистка России Анна Ковальчук.mp4
Format : MPEG-4
Format profile : Base Media
Codec ID : isom (isom/iso2/avc1/mp41)
File size : 38.0 MiB
Duration : 10 min
Overall bit rate : 520 kb/s
Encoded date : UTC 1970-01-01 00:00:00
Tagged date : UTC 1970-01-01 00:00:00
Writing application : Lavf53.11.0

Video
ID : 1
Format : AVC
Format/Info : Advanced Video Codec
Format profile : Main@L3
Format settings, CABAC : Yes
Format settings, ReFrames : 3 frames
Codec ID : avc1
Codec ID/Info : Advanced Video Coding
Duration : 10 min
Bit rate : 448 kb/s
Width : 640 pixels
Height : 480 pixels
Display aspect ratio : 4:3
Frame rate mode : Constant
Frame rate : 25.000 FPS
Color space : YUV
Chroma subsampling : 4:2:0
Bit depth : 8 bits
Scan type : Progressive
Bits/(Pixel*Frame) : 0.058
Stream size : 32.8 MiB (86%)
Writing library : x264 core 116 r2044 392e762
Encoding settings : cabac=1 / ref=3 / deblock=1:0:0 / analyse=0x1:0x111 / me=hex / subme=7 / psy=1 / psy_rd=1.00:0.00 / mixed_ref=0 / me_range=16 / chroma_me=1 / trellis=1 / 8x8dct=0 / cqm=0 / deadzone=21,11 / fast_pskip=1 / chroma_qp_offset=-2 / threads=4 / sliced_threads=0 / nr=0 / decimate=1 / interlaced=0 / bluray_compat=0 / constrained_intra=0 / bframes=3 / b_pyramid=0 / b_adapt=1 / b_bias=0 / direct=1 / weightb=0 / open_gop=0 / weightp=2 / keyint=250 / keyint_min=25 / scenecut=40 / intra_refresh=0 / rc_lookahead=40 / rc=2pass / mbtree=1 / bitrate=448 / ratetol=1.0 / qcomp=0.60 / qpmin=0 / qpmax=69 / qpstep=4 / cplxblur=20.0 / qblur=0.5 / ip_ratio=1.40 / aq=1:1.00
Encoded date : UTC 1970-01-01 00:00:00
Tagged date : UTC 1970-01-01 00:00:00

Audio
ID : 2
Format : AAC
Format/Info : Advanced Audio Codec
Format profile : LC
Codec ID : 40
Duration : 10 min
Bit rate mode : Constant
Bit rate : 66.2 kb/s
Channel(s) : 2 channels
Channel(s)_Original : 1 channel
Channel positions : Front: C
Sampling rate : 44.1 kHz
Frame rate : 43.066 FPS (1024 spf)
Compression mode : Lossy
Stream size : 4.78 MiB (13%)
Encoded date : UTC 1970-01-01 00:00:00
Tagged date : UTC 1970-01-01 00:00:00
Для просмотра содержимого вам необходимо авторизоваться.
 
Последнее редактирование:

admin

Супер активный
Команда форума
Сообщения
374
Симпатии
7
Баллы
43
#3

Название: ТП - Утро на 5
Жанр: Интервью, Телешоу, Юмор
Гость: Анна. Ковальчук
Канал: 5 канал, Спб
Дата выхода: 19.05.2016

О программе:
Вам больше не надо по утрам переключать каналы, чтобы узнать, что происходит на свете. Нет необходимости перещелкивать музыкальные радиостанции в ожидании выпуска новостей. Даже в интернет можно больше не заходить - пока вы спали, команда «Утра на 5» сделала всё за вас! Новое «Утро на 5» - доставка новостей к вашему завтраку!
Гость студии «Утра на 5» актриса Анна Ковальчук рассказывает о том, как можно расширить круг участников благотворительных акций и о том, как воспитывать детей, чтобы они выросли чуткими, отзывчивыми и неравнодушными к чужой беде.
General
Complete name : ТП - Утро на 5 - 19.05.2016 - Гость программы Анна Ковальчук - 5-tv.ru.mp4
Format : MPEG-4
Format profile : Base Media
Codec ID : isom (isom/iso2/avc1/mp41)
File size : 31.2 MiB
Duration : 8 min
Overall bit rate : 519 kb/s
Recorded date : 2016-05-19T10:35:33.00049+03:00
Encoded date : UTC 1970-01-01 00:00:00
Tagged date : UTC 1970-01-01 00:00:00
Writing application : Lavf53.11.0

Video
ID : 1
Format : AVC
Format/Info : Advanced Video Codec
Format profile : Main@L3
Format settings, CABAC : Yes
Format settings, ReFrames : 3 frames
Codec ID : avc1
Codec ID/Info : Advanced Video Coding
Duration : 8 min
Bit rate : 448 kb/s
Width : 640 pixels
Height : 480 pixels
Display aspect ratio : 4:3
Frame rate mode : Constant
Frame rate : 25.000 FPS
Color space : YUV
Chroma subsampling : 4:2:0
Bit depth : 8 bits
Scan type : Progressive
Bits/(Pixel*Frame) : 0.058
Stream size : 26.9 MiB (86%)
Writing library : x264 core 116 r2044 392e762
Encoding settings : cabac=1 / ref=3 / deblock=1:0:0 / analyse=0x1:0x111 / me=hex / subme=7 / psy=1 / psy_rd=1.00:0.00 / mixed_ref=0 / me_range=16 / chroma_me=1 / trellis=1 / 8x8dct=0 / cqm=0 / deadzone=21,11 / fast_pskip=1 / chroma_qp_offset=-2 / threads=4 / sliced_threads=0 / nr=0 / decimate=1 / interlaced=0 / bluray_compat=0 / constrained_intra=0 / bframes=3 / b_pyramid=0 / b_adapt=1 / b_bias=0 / direct=1 / weightb=0 / open_gop=0 / weightp=2 / keyint=250 / keyint_min=25 / scenecut=40 / intra_refresh=0 / rc_lookahead=40 / rc=2pass / mbtree=1 / bitrate=448 / ratetol=1.0 / qcomp=0.60 / qpmin=0 / qpmax=69 / qpstep=4 / cplxblur=20.0 / qblur=0.5 / ip_ratio=1.40 / aq=1:1.00
Encoded date : UTC 1970-01-01 00:00:00
Tagged date : UTC 1970-01-01 00:00:00

Audio
ID : 2
Format : AAC
Format/Info : Advanced Audio Codec
Format profile : LC
Codec ID : 40
Duration : 8 min
Bit rate mode : Constant
Bit rate : 66.2 kb/s
Channel(s) : 2 channels
Channel(s)_Original : 1 channel
Channel positions : Front: C
Sampling rate : 44.1 kHz
Frame rate : 43.066 FPS (1024 spf)
Compression mode : Lossy
Stream size : 3.92 MiB (13%)
Encoded date : UTC 1970-01-01 00:00:00
Tagged date : UTC 1970-01-01 00:00:00
Для просмотра содержимого вам необходимо авторизоваться.
 
Последнее редактирование:

admin

Супер активный
Команда форума
Сообщения
374
Симпатии
7
Баллы
43
#4

Название: ТП - Утро на 5
Жанр: Интервью, Телешоу, Юмор
Гость: Анна Ковальчук и Иван Ожогин
Канал: 5 канал, Спб
Дата выхода: 23.06.2015

О программе:
Вам больше не надо по утрам переключать каналы, чтобы узнать, что происходит на свете. Нет необходимости перещелкивать музыкальные радиостанции в ожидании выпуска новостей. Даже в интернет можно больше не заходить - пока вы спали, команда «Утра на 5» сделала всё за вас! Новое «Утро на 5» - доставка новостей к вашему завтраку!
Этим утром ведущие составляют собственный список новых олимпийских видов спорта. Гости программы Анна Ковальчук и Иван Ожогин рассказывают, как стать настоящими вампирами, а потом быстро превратиться назад – в хороших людей.
General
Complete name : ТП Утро на 5 - 23.06.2015 - Гости программы Анна Ковальчук и Иван Ожогин - 5-tv.ru.mp4
Format : MPEG-4
Format profile : Base Media
Codec ID : isom (isom/iso2/avc1/mp41)
File size : 106 MiB
Duration : 9 min
Overall bit rate mode : Variable
Overall bit rate : 1 508 kb/s
Encoded date : UTC 1970-01-01 00:00:00
Tagged date : UTC 1970-01-01 00:00:00
Writing application : Lavf50.4.0

Video
ID : 1
Format : AVC
Format/Info : Advanced Video Codec
Format profile : Main@L5.1
Format settings, CABAC : Yes
Format settings, ReFrames : 1 frame
Codec ID : avc1
Codec ID/Info : Advanced Video Coding
Duration : 9 min
Bit rate : 1 408 kb/s
Width : 640 pixels
Height : 480 pixels
Display aspect ratio : 4:3
Frame rate mode : Constant
Frame rate : 30.000 FPS
Color space : YUV
Chroma subsampling : 4:2:0
Bit depth : 8 bits
Scan type : Progressive
Bits/(Pixel*Frame) : 0.153
Stream size : 98.8 MiB (93%)
Encoded date : UTC 1970-01-01 00:00:00
Tagged date : UTC 1970-01-01 00:00:00

Audio
ID : 2
Format : AAC
Format/Info : Advanced Audio Codec
Format profile : LC
Codec ID : 40
Duration : 9 min
Bit rate mode : Variable
Bit rate : 96.0 kb/s
Channel(s) : 2 channels
Channel positions : Front: L R
Sampling rate : 44.1 kHz
Frame rate : 43.066 FPS (1024 spf)
Compression mode : Lossy
Stream size : 6.63 MiB (6%)
Encoded date : UTC 1970-01-01 00:00:00
Tagged date : UTC 1970-01-01 00:00:00
Для просмотра содержимого вам необходимо авторизоваться.
 
Последнее редактирование:
Вверх Снизу