• Ув. посетители! Регистрируемся! Только от вас зависит какому ресурсу администрация будет уделять больше времени.

Видео Т/П «Вести» [Россия-1, vgtrk.com]

admin

Супер активный
Команда форума
Сообщения
374
Симпатии
7
Баллы
43
#1

Название: Т/П «Вести» [Россия-1, vgtrk.com] [11.12.2017]
Жанр: Интервью, Репортаж
Гость: Актеры сериала «Тайны следствия»
Канал: Россия1
Дата выхода: 11.12.2017
General
Complete name : ТП «Вести» [Россия-1, vgtrk.com] [11.12.2017].mp4
Format : MPEG-4
Format profile : Base Media
Codec ID : isom (isom/iso2/avc1/mp41)
File size : 35.0 MiB
Duration : 1 min
Overall bit rate : 2 483 kb/s
Writing application : Lavf57.2.100

Video
ID : 1
Format : AVC
Format/Info : Advanced Video Codec
Format profile : High@L4
Format settings, CABAC : Yes
Format settings, ReFrames : 2 frames
Codec ID : avc1
Codec ID/Info : Advanced Video Coding
Duration : 1 min
Bit rate : 2 352 kb/s
Width : 1 920 pixels
Height : 1 080 pixels
Display aspect ratio : 16:9
Frame rate mode : Constant
Frame rate : 25.000 FPS
Color space : YUV
Chroma subsampling : 4:2:0
Bit depth : 8 bits
Scan type : Progressive
Bits/(Pixel*Frame) : 0.045
Stream size : 33.1 MiB (95%)
Color range : Limited
Color primaries : BT.709
Transfer characteristics : BT.709
Matrix coefficients : BT.709

Audio
ID : 2
Format : AAC
Format/Info : Advanced Audio Codec
Format profile : LC
Codec ID : 40
Duration : 1 min
Bit rate mode : Constant
Bit rate : 126 kb/s
Channel(s) : 2 channels
Channel positions : Front: L R
Sampling rate : 44.1 kHz
Frame rate : 43.066 FPS (1024 spf)
Compression mode : Lossy
Stream size : 1.77 MiB (5%)
Default : Yes
Alternate group : 1
Для просмотра содержимого вам необходимо авторизоваться.
 
Последнее редактирование:
Вверх Снизу