• Уважаемые пользователи! Раздел фотогалерея снова доступен для просмотра. Добро Пожаловать!
  • Ув. посетители! Регистрируемся! Только от вас зависит какому ресурсу администрация будет уделять больше времени.

Видео Тайны следствия 14 [Кадры из сериала]

admin

Супер активный
Команда форума
Сообщения
374
Симпатии
7
Баллы
43
#1

Оригинальное название: сериал "Тайны следствия - 14" - Компромат (2014) WEB-DL [Россия1]
Жанр: Детектив
Продолжительность: 00:00:44
Качество: mkv
Разрешение: 1280x720
Размер: 31,9 mb
General
Unique ID : 211637714703037267722030353212957239190 (0x9F37F0F331554755A28E51254203A796)
Complete name : Tayny.sledstviya.-2014.(04.seriya).HDTVRip.mkv
Format : Matroska
Format version : Version 4 / Version 2
File size : 31.9 MiB
Duration : 44 s 608 ms
Overall bit rate : 6 005 kb/s
Encoded date : UTC 2017-06-12 11:54:13
Writing application : mkvmerge v6.0.0 ('Coming Up For Air') built on Jan 20 2013 09:52:00
Writing library : libebml v1.3.0 + libmatroska v1.4.0

Video
ID : 1
Format : AVC
Format/Info : Advanced Video Codec
Format profile : High@L4.1
Format settings, CABAC : Yes
Format settings, ReFrames : 8 frames
Codec ID : V_MPEG4/ISO/AVC
Duration : 44 s 600 ms
Bit rate : 5 693 kb/s
Width : 1 280 pixels
Height : 720 pixels
Display aspect ratio : 16:9
Frame rate mode : Constant
Frame rate : 25.000 FPS
Color space : YUV
Chroma subsampling : 4:2:0
Bit depth : 8 bits
Scan type : Progressive
Bits/(Pixel*Frame) : 0.247
Stream size : 30.3 MiB (95%)
Default : Yes
Forced : No

Audio
ID : 2
Format : AC-3
Format/Info : Audio Coding 3
Mode extension : CM (complete main)
Format settings, Endianness : Big
Codec ID : A_AC3
Duration : 44 s 608 ms
Bit rate mode : Constant
Bit rate : 192 kb/s
Channel(s) : 2 channels
Channel positions : Front: L R
Sampling rate : 48.0 kHz
Frame rate : 31.250 FPS (1536 spf)
Compression mode : Lossy
Stream size : 1.02 MiB (3%)
Default : Yes
Forced : No
Для просмотра содержимого вам необходимо авторизоваться.
 
Последнее редактирование:

admin

Супер активный
Команда форума
Сообщения
374
Симпатии
7
Баллы
43
#2

Оригинальное название: сериал "Тайны следствия - 14" - Добрый человек (2014) WEB-DL [Россия1]
Жанр: Детектив
Продолжительность: 00:02:38
Качество: mkv
Разрешение: 1280x720
Размер: 89,9 mb
General
Unique ID : 226189832912212001017701689143223681669 (0xAA2A93C57C9680ADB5051FD8ACDC8285)
Complete name : Tayny.sledstviya.-2014.(11.seriya).HDTVRip.mkv
Format : Matroska
Format version : Version 4 / Version 2
File size : 89.9 MiB
Duration : 2 min
Overall bit rate : 4 767 kb/s
Encoded date : UTC 2017-06-12 12:04:17
Writing application : mkvmerge v6.0.0 ('Coming Up For Air') built on Jan 20 2013 09:52:00
Writing library : libebml v1.3.0 + libmatroska v1.4.0

Video
ID : 1
Format : AVC
Format/Info : Advanced Video Codec
Format profile : High@L4.1
Format settings, CABAC : Yes
Format settings, ReFrames : 8 frames
Codec ID : V_MPEG4/ISO/AVC
Duration : 2 min
Bit rate : 4 480 kb/s
Width : 1 280 pixels
Height : 720 pixels
Display aspect ratio : 16:9
Frame rate mode : Constant
Frame rate : 25.000 FPS
Color space : YUV
Chroma subsampling : 4:2:0
Bit depth : 8 bits
Scan type : Progressive
Bits/(Pixel*Frame) : 0.194
Stream size : 84.5 MiB (94%)
Default : Yes
Forced : No

Audio
ID : 2
Format : AC-3
Format/Info : Audio Coding 3
Mode extension : CM (complete main)
Format settings, Endianness : Big
Codec ID : A_AC3
Duration : 2 min
Bit rate mode : Constant
Bit rate : 192 kb/s
Channel(s) : 2 channels
Channel positions : Front: L R
Sampling rate : 48.0 kHz
Frame rate : 31.250 FPS (1536 spf)
Compression mode : Lossy
Delay relative to video : 8 ms
Stream size : 3.62 MiB (4%)
Default : Yes
Forced : No
Для просмотра содержимого вам необходимо авторизоваться.
 
Последнее редактирование:
Вверх Снизу