• Уважаемые пользователи! Раздел фотогалерея снова доступен для просмотра. Добро Пожаловать!
  • Ув. посетители! Регистрируемся! Только от вас зависит какому ресурсу администрация будет уделять больше времени.

Видео Тайны следствия 16 [Кадры из сериала]

admin

Супер активный
Команда форума
Сообщения
374
Симпатии
7
Баллы
43
#1

Оригинальное название: сериал «Тайны следствия - 16» - Любовь должна быть счастливой (2016) HDTVRip [Россия1]
Жанр: Детектив
Продолжительность: 00:01:18
Качество: avi
Разрешение: 720x400
Размер: 12,2 mb
General
Complete name : Tayny.sledstviya.-2016.(03.seriya).HDTVRip.avi
Format : AVI
Format/Info : Audio Video Interleave
File size : 12.2 MiB
Duration : 1 min
Overall bit rate : 1 305 kb/s
Writing application : VirtualDubMod 1.5.10.3 | www.virtualdub-fr.org || (build 2550/release)
Writing library : Boilsoft AVI tool build 30012/release

Video
ID : 0
Format : MPEG-4 Visual
Format profile : Advanced Simple@L5
Format settings, BVOP : 1
Format settings, QPel : No
Format settings, GMC : No warppoints
Format settings, Matrix : Custom
Codec ID : XVID
Codec ID/Hint : XviD
Duration : 1 min
Bit rate : 1 103 kb/s
Width : 720 pixels
Height : 400 pixels
Display aspect ratio : 16:9
Frame rate : 25.000 FPS
Color space : YUV
Chroma subsampling : 4:2:0
Bit depth : 8 bits
Scan type : Progressive
Compression mode : Lossy
Bits/(Pixel*Frame) : 0.153
Stream size : 10.3 MiB (84%)
Writing library : XviD 73

Audio
ID : 1
Format : AC-3
Format/Info : Audio Coding 3
Mode extension : CM (complete main)
Format settings, Endianness : Big
Codec ID : 2000
Duration : 1 min
Bit rate mode : Constant
Bit rate : 192 kb/s
Channel(s) : 2 channels
Channel positions : Front: L R
Sampling rate : 48.0 kHz
Frame rate : 31.250 FPS (1536 spf)
Compression mode : Lossy
Stream size : 1.80 MiB (15%)
Alignment : Split accross interleaves
Interleave, duration : 40 ms (1.01 video frame)
Interleave, preload duratio : 500 ms
Для просмотра содержимого вам необходимо авторизоваться.
 
Последнее редактирование:

admin

Супер активный
Команда форума
Сообщения
374
Симпатии
7
Баллы
43
#2

Оригинальное название: сериал «Тайны следствия - 16» - Личные интересы (2016) HDTVRip [Россия1]
Жанр: Детектив
Продолжительность: 00:00:22
Качество: avi
Разрешение: 720x400
Размер: 6,11 mb
General
Complete name : Tayny.sledstviya.-2016.(05.seriya).HDTVRip.avi
Format : AVI
Format/Info : Audio Video Interleave
File size : 6.11 MiB
Duration : 22 s 360 ms
Overall bit rate : 2 292 kb/s
Writing application : VirtualDubMod 1.5.10.3 | www.virtualdub-fr.org || (build 2550/release)
Writing library : Boilsoft AVI tool build 30012/release

Video
ID : 0
Format : MPEG-4 Visual
Format profile : Advanced Simple@L5
Format settings, BVOP : 1
Format settings, QPel : No
Format settings, GMC : No warppoints
Format settings, Matrix : Custom
Codec ID : XVID
Codec ID/Hint : XviD
Duration : 22 s 360 ms
Bit rate : 2 088 kb/s
Width : 720 pixels
Height : 400 pixels
Display aspect ratio : 16:9
Frame rate : 25.000 FPS
Color space : YUV
Chroma subsampling : 4:2:0
Bit depth : 8 bits
Scan type : Progressive
Compression mode : Lossy
Bits/(Pixel*Frame) : 0.290
Stream size : 5.57 MiB (91%)
Writing library : XviD 73

Audio
ID : 1
Format : AC-3
Format/Info : Audio Coding 3
Mode extension : CM (complete main)
Format settings, Endianness : Big
Codec ID : 2000
Duration : 22 s 360 ms
Bit rate mode : Constant
Bit rate : 192 kb/s
Channel(s) : 2 channels
Channel positions : Front: L R
Sampling rate : 48.0 kHz
Frame rate : 31.250 FPS (1536 spf)
Compression mode : Lossy
Delay relative to video : 16 ms
Stream size : 524 KiB (8%)
Alignment : Split accross interleaves
Interleave, duration : 41 ms (1.02 video frame)
Interleave, preload duratio : 500 ms
Для просмотра содержимого вам необходимо авторизоваться.
 
Последнее редактирование:

admin

Супер активный
Команда форума
Сообщения
374
Симпатии
7
Баллы
43
#3

Оригинальное название: сериал «Тайны следствия - 16» - Смерть поэта (2016) HDTVRip [Россия1]
Жанр: Детектив
Продолжительность: 00:01:40
Качество: avi
Разрешение: 720x400
Размер: 24,8 mb
General
Complete name : Tayny.sledstviya.-2016.(06.seriya).HDTVRip.avi
Format : AVI
Format/Info : Audio Video Interleave
File size : 24.9 MiB
Duration : 1 min
Overall bit rate : 2 085 kb/s
Writing application : VirtualDubMod 1.5.10.3 | www.virtualdub-fr.org || (build 2550/release)
Writing library : Boilsoft AVI tool build 30012/release

Video
ID : 0
Format : MPEG-4 Visual
Format profile : Advanced Simple@L5
Format settings, BVOP : 1
Format settings, QPel : No
Format settings, GMC : No warppoints
Format settings, Matrix : Custom
Codec ID : XVID
Codec ID/Hint : XviD
Duration : 1 min
Bit rate : 1 883 kb/s
Width : 720 pixels
Height : 400 pixels
Display aspect ratio : 16:9
Frame rate : 25.000 FPS
Color space : YUV
Chroma subsampling : 4:2:0
Bit depth : 8 bits
Scan type : Progressive
Compression mode : Lossy
Bits/(Pixel*Frame) : 0.262
Stream size : 22.4 MiB (90%)
Writing library : XviD 73

Audio
ID : 1
Format : AC-3
Format/Info : Audio Coding 3
Mode extension : CM (complete main)
Format settings, Endianness : Big
Codec ID : 2000
Duration : 1 min
Bit rate mode : Constant
Bit rate : 192 kb/s
Channel(s) : 2 channels
Channel positions : Front: L R
Sampling rate : 48.0 kHz
Frame rate : 31.250 FPS (1536 spf)
Compression mode : Lossy
Delay relative to video : 24 ms
Stream size : 2.29 MiB (9%)
Alignment : Split accross interleaves
Interleave, duration : 40 ms (1.00 video frame)
Interleave, preload duratio : 500 ms
Для просмотра содержимого вам необходимо авторизоваться.
 
Последнее редактирование:

admin

Супер активный
Команда форума
Сообщения
374
Симпатии
7
Баллы
43
#4

Оригинальное название: сериал «Тайны следствия - 16» - Ближний круг (2016) HDTVRip [Россия1]
Жанр: Детектив
Продолжительность: 00:04:27
Качество: avi
Разрешение: 720x400
Размер: 72,0 mb
General
Complete name : Tayny.sledstviya.-2016.(08.seriya).HDTVRip.avi
Format : AVI
Format/Info : Audio Video Interleave
File size : 72.0 MiB
Duration : 4 min
Overall bit rate : 2 258 kb/s
Writing application : VirtualDubMod 1.5.10.3 | www.virtualdub-fr.org || (build 2550/release)
Writing library : Boilsoft AVI tool build 30012/release

Video
ID : 0
Format : MPEG-4 Visual
Format profile : Advanced Simple@L5
Format settings, BVOP : 1
Format settings, QPel : No
Format settings, GMC : No warppoints
Format settings, Matrix : Custom
Codec ID : XVID
Codec ID/Hint : XviD
Duration : 4 min
Bit rate : 2 056 kb/s
Width : 720 pixels
Height : 400 pixels
Display aspect ratio : 16:9
Frame rate : 25.000 FPS
Color space : YUV
Chroma subsampling : 4:2:0
Bit depth : 8 bits
Scan type : Progressive
Compression mode : Lossy
Bits/(Pixel*Frame) : 0.286
Stream size : 65.6 MiB (91%)
Writing library : XviD 73

Audio
ID : 1
Format : AC-3
Format/Info : Audio Coding 3
Mode extension : CM (complete main)
Format settings, Endianness : Big
Codec ID : 2000
Duration : 4 min
Bit rate mode : Constant
Bit rate : 192 kb/s
Channel(s) : 2 channels
Channel positions : Front: L R
Sampling rate : 48.0 kHz
Frame rate : 31.250 FPS (1536 spf)
Compression mode : Lossy
Delay relative to video : 16 ms
Stream size : 6.12 MiB (9%)
Alignment : Split accross interleaves
Interleave, duration : 40 ms (1.00 video frame)
Interleave, preload duratio : 500 ms
Для просмотра содержимого вам необходимо авторизоваться.
 
Последнее редактирование:
Вверх Снизу