• Ув. посетители! Регистрируемся! Только от вас зависит какому ресурсу администрация будет уделять больше времени.

Видео Встреча Следственного комитета актерами и создателями сериала «Тайны следствия» [Россия-1, Вести СПб., 2.09.2017]

admin

Супер активный
Команда форума
Сообщения
374
Симпатии
7
Баллы
43
#1

Название: Встреча Следственного комитета актерами и создателями сериала «Тайны следствия»
Жанр: Интервью, Репортаж
Гость: Актеры и создатели сериала «Тайны следствия»
Канал: Россия-1, Вести СПб.
Дата выхода: 02.09.2017
General
Complete name : Актеры сериала Тайны следствия встретились с курсантами академии Следственного комитета.mp4
Format : MPEG-4
Format profile : Base Media / Version 2
Codec ID : mp42 (mp42/mp41)
File size : 21.3 MiB
Duration : 2 min
Overall bit rate mode : Variable
Overall bit rate : 1 096 kb/s
Encoded date : UTC 2017-09-02 07:46:36
Tagged date : UTC 2017-09-02 07:46:36
©TIM : 00:00:00:00
©TSC : 30
©TSZ : 1

Video
ID : 1
Format : AVC
Format/Info : Advanced Video Codec
Format profile : Main@L4
Format settings, CABAC : Yes
Format settings, ReFrames : 3 frames
Codec ID : avc1
Codec ID/Info : Advanced Video Coding
Duration : 2 min
Bit rate : 1 069 kb/s
Width : 550 pixels
Height : 412 pixels
Display aspect ratio : 4:3
Frame rate mode : Constant
Frame rate : 30.000 FPS
Standard : PAL
Color space : YUV
Chroma subsampling : 4:2:0
Bit depth : 8 bits
Scan type : Progressive
Bits/(Pixel*Frame) : 0.157
Stream size : 20.8 MiB (98%)
Language : English
Encoded date : UTC 2017-09-02 07:46:36
Tagged date : UTC 2017-09-02 07:46:36
Color range : Limited

Audio
ID : 2
Format : AAC
Format/Info : Advanced Audio Codec
Format profile : LC
Codec ID : 40
Duration : 2 min
Source duration : 2 min
Bit rate mode : Variable
Bit rate : 22.8 kb/s
Maximum bit rate : 33.4 kb/s
Channel(s) : 2 channels
Channel(s)_Original : 1 channel
Channel positions : Front: C
Sampling rate : 22.05 kHz
Frame rate : 21.533 FPS (1024 spf)
Compression mode : Lossy
Stream size : 455 KiB (2%)
Source stream size : 455 KiB (2%)
Language : English
Encoded date : UTC 2017-09-02 07:46:36
Tagged date : UTC 2017-09-02 07:46:36
Для просмотра содержимого вам необходимо авторизоваться.
 
Последнее редактирование:
Вверх Снизу