Видео II Международный фестиваль музыки, театра и кино «Jūras Pērle» [30.07.18-3.08.18, «Дзинтари», Юрмала]

Кто читал эту тему (Всего: 0) Подробнее...

Кто просматривает эту тему (Всего: 1, Пользователей: 0, Гостей: 1)

mrcelebs

Проверенный
Пользователь
Сообщения
25
Симпатии
2
Баллы
4
#1
С 30 июля по 3 августа в концертном зале «Дзинтари» пройдет Второй Международный фестиваль музыки, театра и кино «Jūras Pērle». Зрители смогут окунуться в атмосферу синтеза разных видов искусств, в живую услышать песни в исполнении как самих артистов, сыгравших роли в фильмах/мюзиклах/спектаклях, так и артистов, которые исполняли их «за кадром». Во время исполнения песен будут демонстрироваться отрывки из оригинальных фильмов/мюзиклов, а также на сцене будут меняться декорации и будут происходить театральные действия. К сожалению, не все актеры обладают профессиональными вокальными данными, но все песни будут исполняться только в живую и в сопровождении симфонического оркестра/вокально-инструментальной группы.

Название: «Jūras Pērle» «Дуэт принцессы и Трубадура» [Песня из м.ф. «Трубадур и его друзья»] [30.07.18-3.08.18, «Дзинтари», Юрмала]
Жанр: Фестиваль
Участники: А. Ковальчук и Д. Якубович
Дата выхода: 30.07 - 3 августа, 2010
Продолжительность: 00:02:23
Место съёмки: Концертный зал «Дзинтари» , Юрмала
General
Complete name : «Jūras Pērle» «Дуэт принцессы и Трубадура» [Песня из м.ф. «Трубадур и его друзья»][30.07.18-3.08.18, «Дзинтари», Юрмала].mp4
Format : MPEG-4
Format profile : Base Media
Codec ID : isom (isom/iso2/avc1/mp41)
File size : 88.0 MiB
Duration : 2 min
Overall bit rate : 5 130 kb/s
Writing application : Lavf57.83.100

Video
ID : 1
Format : AVC
Format/Info : Advanced Video Codec
Format profile : High@L4
Format settings, CABAC : Yes
Format settings, ReFrames : 4 frames
Codec ID : avc1
Codec ID/Info : Advanced Video Coding
Duration : 2 min
Bit rate : 4 950 kb/s
Width : 1 920 pixels
Height : 1 080 pixels
Display aspect ratio : 16:9
Frame rate mode : Constant
Frame rate : 30.000 FPS
Color space : YUV
Chroma subsampling : 4:2:0
Bit depth : 8 bits
Scan type : Progressive
Bits/(Pixel*Frame) : 0.080
Stream size : 84.5 MiB (96%)
Writing library : x264 core 148
Encoding settings : cabac=1 / ref=2 / deblock=1:0:0 / analyse=0x3:0x113 / me=hex / subme=6 / psy=1 / psy_rd=1.00:0.00 / mixed_ref=1 / me_range=16 / chroma_me=1 / trellis=1 / 8x8dct=1 / cqm=0 / deadzone=21,11 / fast_pskip=1 / chroma_qp_offset=-2 / threads=6 / lookahead_threads=1 / sliced_threads=0 / nr=0 / decimate=1 / interlaced=0 / bluray_compat=0 / constrained_intra=0 / bframes=3 / b_pyramid=2 / b_adapt=1 / b_bias=0 / direct=1 / weightb=1 / open_gop=0 / weightp=1 / keyint=250 / keyint_min=25 / scenecut=40 / intra_refresh=0 / rc_lookahead=30 / rc=2pass / mbtree=1 / bitrate=4950 / ratetol=1.0 / qcomp=0.60 / qpmin=0 / qpmax=69 / qpstep=4 / cplxblur=20.0 / qblur=0.5 / vbv_maxrate=4950 / vbv_bufsize=9900 / nal_hrd=none / filler=0 / ip_ratio=1.40 / aq=1:1.00

Audio
ID : 2
Format : AAC
Format/Info : Advanced Audio Codec
Format profile : LC
Codec ID : 40
Duration : 2 min
Duration_LastFrame : -16 ms
Bit rate mode : Constant
Bit rate : 192 kb/s
Channel(s) : 2 channels
Channel positions : Front: L R
Sampling rate : 44.1 kHz
Frame rate : 43.066 FPS (1024 spf)
Compression mode : Lossy
Stream size : 3.29 MiB (4%)
Default : Yes
Alternate group : 1
Для просмотра содержимого вам необходимо авторизоваться.
 
Последнее редактирование модератором:

admin

Супер активный
Команда форума
Сообщения
464
Симпатии
12
Баллы
34
#2

Название: «Дневники» - «Jūras Pērle»
Жанр: Репортаж, интервью
Участники: Артисты театра им. Ленсовета
Дата выхода: 30.07 - 3 августа, 2018
Продолжительность: 00:04:36
Место съёмки: Концертный зал «Дзинтари» , Юрмала
General
Complete name : «Дневники» - «Jūras Pērle».mp4
Format : MPEG-4
Format profile : Base Media
Codec ID : isom (isom/iso2/avc1/mp41)
File size : 143 MiB
Duration : 4 min
Overall bit rate mode : Variable
Overall bit rate : 4 330 kb/s
Writing application : Lavf55.33.100

Video
ID : 1
Format : AVC
Format/Info : Advanced Video Codec
Format profile : High@L3.1
Format settings, CABAC : Yes
Format settings, ReFrames : 4 frames
Codec ID : avc1
Codec ID/Info : Advanced Video Coding
Duration : 4 min
Bit rate : 4 193 kb/s
Nominal bit rate : 1 980 kb/s
Width : 1 280 pixels
Height : 720 pixels
Display aspect ratio : 16:9
Frame rate mode : Variable
Frame rate : 25.000 FPS
Color space : YUV
Chroma subsampling : 4:2:0
Bit depth : 8 bits
Scan type : Progressive
Bits/(Pixel*Frame) : 0.182
Stream size : 138 MiB (97%)
Writing library : x264 core 148
Encoding settings : cabac=1 / ref=2 / deblock=1:0:0 / analyse=0x3:0x113 / me=hex / subme=6 / psy=1 / psy_rd=1.00:0.00 / mixed_ref=1 / me_range=16 / chroma_me=1 / trellis=1 / 8x8dct=1 / cqm=0 / deadzone=21,11 / fast_pskip=1 / chroma_qp_offset=-2 / threads=6 / lookahead_threads=1 / sliced_threads=0 / nr=0 / decimate=1 / interlaced=0 / bluray_compat=0 / constrained_intra=0 / bframes=3 / b_pyramid=2 / b_adapt=1 / b_bias=0 / direct=1 / weightb=1 / open_gop=0 / weightp=1 / keyint=250 / keyint_min=25 / scenecut=40 / intra_refresh=0 / rc_lookahead=30 / rc=2pass / mbtree=1 / bitrate=1980 / ratetol=1.0 / qcomp=0.60 / qpmin=0 / qpmax=69 / qpstep=4 / cplxblur=20.0 / qblur=0.5 / vbv_maxrate=1980 / vbv_bufsize=3960 / nal_hrd=none / filler=0 / ip_ratio=1.40 / aq=1:1.00

Audio
ID : 2
Format : AAC
Format/Info : Advanced Audio Codec
Format profile : LC
Codec ID : 40
Duration : 4 min
Bit rate mode : Variable
Bit rate : 132 kb/s
Maximum bit rate : 192 kb/s
Channel(s) : 2 channels
Channel positions : Front: L R
Sampling rate : 48.0 kHz
Frame rate : 46.875 FPS (1024 spf)
Compression mode : Lossy
Stream size : 4.44 MiB (3%)
Default : Yes
Alternate group : 1
Для просмотра содержимого вам необходимо авторизоваться.
 
Последнее редактирование:

admin

Супер активный
Команда форума
Сообщения
464
Симпатии
12
Баллы
34
#3

Название: «Jūras Pērle» [30.07.18-3.08.18, «Дзинтари», Юрмала] [Любительская съёмка]
Жанр: Фестиваль
Участники: А. Ковальчук и Д. Якубович
Дата выхода: 30.07 - 3 августа, 2010
Продолжительность: 00:04:37
Место съёмки: Концертный зал «Дзинтари» , Юрмала
  1. «Дуэт принцессы и Трубадура» [Песня из м.ф. «Трубадур и его друзья»] - [Исполняют: А. Ковальчук и Д. Якубович]
  2. «Баллада Альдонсы» [Из т/ф «Дульсинея Тобосская»] - [Исполняет: А. Ковальчук]
General
Complete name : «Jūras Pērle» [30.07.18-3.08.18, «Дзинтари», Юрмала] [Любительская съёмка].mp4
Format : MPEG-4
Format profile : Base Media
Codec ID : isom (isom/iso2/avc1/mp41)
File size : 151 MiB
Duration : 4 min
Overall bit rate : 4 565 kb/s
Writing application : Lavf57.2.100

Video
ID : 1
Format : AVC
Format/Info : Advanced Video Codec
Format profile : High@L4
Format settings, CABAC : Yes
Format settings, ReFrames : 2 frames
Codec ID : avc1
Codec ID/Info : Advanced Video Coding
Duration : 4 min
Bit rate : 4 431 kb/s
Width : 1 920 pixels
Height : 1 080 pixels
Display aspect ratio : 16:9
Frame rate mode : Variable
Frame rate : 29.867 FPS
Minimum frame rate : 29.861 FPS
Maximum frame rate : 29.871 FPS
Color space : YUV
Chroma subsampling : 4:2:0
Bit depth : 8 bits
Scan type : Progressive
Bits/(Pixel*Frame) : 0.072
Stream size : 147 MiB (97%)
Color range : Limited
Color primaries : BT.709
Transfer characteristics : BT.709
Matrix coefficients : BT.709

Audio
ID : 2
Format : AAC
Format/Info : Advanced Audio Codec
Format profile : LC
Codec ID : 40
Duration : 4 min
Bit rate mode : Constant
Bit rate : 126 kb/s
Channel(s) : 2 channels
Channel positions : Front: L R
Sampling rate : 44.1 kHz
Frame rate : 43.066 FPS (1024 spf)
Compression mode : Lossy
Stream size : 4.16 MiB (3%)
Language : English
Default : Yes
Alternate group : 1
Для просмотра содержимого вам необходимо авторизоваться.
 

admin

Супер активный
Команда форума
Сообщения
464
Симпатии
12
Баллы
34
#4

Название: «Свидание в Юрмале» - Фестиваль музыки, театра и кино «Jūras Pērle» [ТВЦ, 26.08.2018]
Жанр: Фестиваль
Участники: А. Ковальчук и Д. Якубович
Дата выхода: 26.08.2018
Канал: ТВЦ
Продолжительность: 00:03:29
Место съёмки: Концертный зал «Дзинтари» , Юрмала
  1. «Ничего на свете лучше нет» [Песня из м.ф. «Бременские музыканты»] - [Исполняют: М. Боярский, Л. Луппиан, С. Перегудов, А. Ковальчук, С. Мигицко, А. Новиков, С. Стругачёв]
  2. «Дуэт принцессы и Трубадура» [Песня из м.ф. «Трубадур и его друзья»] - [Исполняют: А. Ковальчук и Д. Якубович]
General
Complete name : «Свидание в Юрмале» - Фестиваль музыки, театра и кино «Jūras Pērle» [ТВЦ, 26.08.2018].mp4
Format : MPEG-4
Format profile : Base Media
Codec ID : isom (isom/iso2/avc1/mp41)
File size : 96.0 MiB
Duration : 3 min
Overall bit rate mode : Variable
Overall bit rate : 3 851 kb/s

Video
ID : 1
Format : AVC
Format/Info : Advanced Video Codec
Format profile : Main@L4.2
Format settings, CABAC : Yes
Format settings, ReFrames : 3 frames
Codec ID : avc1
Codec ID/Info : Advanced Video Coding
Duration : 3 min
Bit rate : 3 746 kb/s
Width : 1 048 pixels
Height : 576 pixels
Display aspect ratio : 16:9
Frame rate mode : Variable
Frame rate : 25.420 FPS
Minimum frame rate : 10.000 FPS
Maximum frame rate : 150.000 FPS
Color space : YUV
Chroma subsampling : 4:2:0
Bit depth : 8 bits
Scan type : Progressive
Bits/(Pixel*Frame) : 0.244
Stream size : 93.4 MiB (97%)
Writing library : x264 core 142 r2455 021c0dc
Encoding settings : cabac=1 / ref=3 / deblock=1:0:0 / analyse=0x1:0x111 / me=hex / subme=7 / psy=1 / psy_rd=1.00:0.00 / mixed_ref=1 / me_range=16 / chroma_me=1 / trellis=1 / 8x8dct=0 / cqm=0 / deadzone=21,11 / fast_pskip=1 / chroma_qp_offset=-4 / threads=4 / lookahead_threads=1 / sliced_threads=0 / nr=0 / decimate=1 / interlaced=0 / bluray_compat=0 / constrained_intra=0 / bframes=0 / weightp=2 / keyint=250 / keyint_min=25 / scenecut=40 / intra_refresh=0 / rc=crf / mbtree=0 / crf=18.0 / qcomp=0.60 / qpmin=4 / qpmax=69 / qpstep=4 / ip_ratio=1.40 / aq=1:1.00

Audio
ID : 2
Format : AAC
Format/Info : Advanced Audio Codec
Format profile : LC
Codec ID : 40
Duration : 3 min
Bit rate mode : Variable
Bit rate : 102 kb/s
Maximum bit rate : 192 kb/s
Channel(s) : 2 channels
Channel positions : Front: L R
Sampling rate : 48.0 kHz
Frame rate : 46.875 FPS (1024 spf)
Compression mode : Lossy
Stream size : 2.55 MiB (3%)
Default : Yes
Alternate group : 1
Для просмотра содержимого вам необходимо авторизоваться.
 
Сверху Снизу