Видео III Международный конкурс вокалистов «Гран-При Санкт-Петербурга» [25-29 ноября 2012] [БКЗ «Октябрьский»]

Кто читал эту тему (Всего: 0) Подробнее...

Кто просматривает эту тему (Всего: 1, Пользователей: 0, Гостей: 1)

admin

Супер активный
Команда форума
Сообщения
464
Симпатии
12
Баллы
34
#1

Название: Иван Ожогин, Анна Ковальчук. «Я тебя никогда не забуду» [1]
Жанр: Концерт
Участники: А. Ковальчук и И. Ожогин
Дата выхода: 25-29 ноября, 2012
Место съёмки: БКЗ Октябрьский, СПб
General
Complete name : Иван Ожогин, Анна Ковальчук. «Я тебя никогда не забуду» [1].mp4
Format : MPEG-4
Format profile : Base Media
Codec ID : isom (isom/iso2/avc1/mp41)
File size : 122 MiB
Duration : 3 min
Overall bit rate : 5 506 kb/s
Writing application : Lavf56.40.101

Video
ID : 1
Format : AVC
Format/Info : Advanced Video Codec
Format profile : High@L4
Format settings, CABAC : Yes
Format settings, ReFrames : 3 frames
Codec ID : avc1
Codec ID/Info : Advanced Video Coding
Duration : 3 min
Bit rate : 5 381 kb/s
Nominal bit rate : 5 100 kb/s
Width : 1 920 pixels
Height : 1 080 pixels
Display aspect ratio : 16:9
Frame rate mode : Constant
Frame rate : 25.000 FPS
Color space : YUV
Chroma subsampling : 4:2:0
Bit depth : 8 bits
Scan type : Progressive
Bits/(Pixel*Frame) : 0.104
Stream size : 119 MiB (98%)
Writing library : x264 core 142 r2455 021c0dc
Encoding settings : cabac=1 / ref=1 / deblock=1:2:2 / analyse=0x3:0x113 / me=dia / subme=2 / psy=1 / psy_rd=1.00:0.00 / mixed_ref=0 / me_range=16 / chroma_me=1 / trellis=0 / 8x8dct=1 / cqm=0 / deadzone=21,11 / fast_pskip=1 / chroma_qp_offset=0 / threads=1 / lookahead_threads=1 / sliced_threads=0 / nr=0 / decimate=1 / interlaced=0 / bluray_compat=0 / constrained_intra=0 / bframes=3 / b_pyramid=1 / b_adapt=1 / b_bias=0 / direct=1 / weightb=1 / open_gop=0 / weightp=2 / keyint=25 / keyint_min=13 / scenecut=0 / intra_refresh=0 / rc_lookahead=25 / rc=abr / mbtree=1 / bitrate=5100 / ratetol=1.0 / qcomp=0.60 / qpmin=10 / qpmax=51 / qpstep=4 / ip_ratio=1.41 / aq=1:1.00
Tagged date : UTC 2017-03-09 05:22:32

Audio
ID : 2
Format : AAC
Format/Info : Advanced Audio Codec
Format profile : LC
Codec ID : 40
Duration : 3 min
Source duration : 3 min
Bit rate mode : Constant
Bit rate : 122 kb/s
Channel(s) : 2 channels
Channel positions : Front: L R
Sampling rate : 44.1 kHz
Frame rate : 43.066 FPS (1024 spf)
Compression mode : Lossy
Stream size : 2.69 MiB (2%)
Source stream size : 2.70 MiB (2%)
Default : Yes
Alternate group : 1
Tagged date : UTC 2017-03-09 05:22:32
Для просмотра содержимого вам необходимо авторизоваться.
 
Последнее редактирование:

admin

Супер активный
Команда форума
Сообщения
464
Симпатии
12
Баллы
34
#2

Название: Иван Ожогин, Анна Ковальчук. «Я тебя никогда не забуду» [2]
Жанр: Концерт
Участники: А. Ковальчук и И. Ожогин
Дата выхода: 25-29 ноября, 2012
Место съёмки: БКЗ Октябрьский, СПб
General
Complete name : Иван Ожогин, Анна Ковальчук. «Я тебя никогда не забуду» [2].mp4
Format : MPEG-4
Format profile : Base Media
Codec ID : isom (isom/iso2/avc1/mp41)
File size : 85.1 MiB
Duration : 3 min
Overall bit rate : 3 600 kb/s
Writing application : Lavf57.2.100

Video
ID : 1
Format : AVC
Format/Info : Advanced Video Codec
Format profile : High@L4
Format settings, CABAC : Yes
Format settings, ReFrames : 3 frames
Codec ID : avc1
Codec ID/Info : Advanced Video Coding
Duration : 3 min
Bit rate : 3 470 kb/s
Width : 1 920 pixels
Height : 1 080 pixels
Display aspect ratio : 16:9
Frame rate mode : Variable
Frame rate : 25.000 FPS
Minimum frame rate : 25.000 FPS
Maximum frame rate : 1 000.000 FPS
Color space : YUV
Chroma subsampling : 4:2:0
Bit depth : 8 bits
Scan type : Progressive
Bits/(Pixel*Frame) : 0.067
Stream size : 81.9 MiB (96%)

Audio
ID : 2
Format : AAC
Format/Info : Advanced Audio Codec
Format profile : LC
Codec ID : 40
Duration : 3 min
Bit rate mode : Constant
Bit rate : 126 kb/s
Channel(s) : 2 channels
Channel positions : Front: L R
Sampling rate : 44.1 kHz
Frame rate : 43.066 FPS (1024 spf)
Compression mode : Lossy
Stream size : 2.97 MiB (3%)
Default : Yes
Alternate group : 1
Для просмотра содержимого вам необходимо авторизоваться.
 
Последнее редактирование:

admin

Супер активный
Команда форума
Сообщения
464
Симпатии
12
Баллы
34
#3

Название: Финал конкурса «Гран-При Санкт-Петербурга», Международный конкурс вокалистов, БКЗ Октябрьский, 29. 11. 2012 [1]
Жанр: Концерт
Участники: А. Ковальчук и И. Ожогин
Дата выхода: 25-29 ноября, 2012
Место съёмки: БКЗ Октябрьский, СПб
General
Complete name : Финал конкурса «Гран-При Санкт-Петербурга», Международный конкурс вокалистов, БКЗ Октябрьский, 29. 11. 2012 [1].mp4
Format : MPEG-4
Format profile : Base Media / Version 2
Codec ID : mp42 (isom/mp42)
File size : 68.8 MiB
Duration : 3 min
Overall bit rate mode : Variable
Overall bit rate : 3 172 kb/s
Encoded date : UTC 2014-02-23 12:42:49
Tagged date : UTC 2014-02-23 12:42:49
gsst : 0
gstd : 182066
gssd : B4A7DD662
gshh : r2---sn-p5qlsu7z.googlevideo.com

Video
ID : 1
Format : AVC
Format/Info : Advanced Video Codec
Format profile : High@L3.1
Format settings, CABAC : Yes
Format settings, ReFrames : 1 frame
Format settings, GOP : M=1, N=60
Codec ID : avc1
Codec ID/Info : Advanced Video Coding
Duration : 3 min
Bit rate : 2 978 kb/s
Maximum bit rate : 5 132 kb/s
Width : 1 280 pixels
Height : 720 pixels
Display aspect ratio : 16:9
Frame rate mode : Variable
Frame rate : 24.958 FPS
Minimum frame rate : 24.469 FPS
Maximum frame rate : 25.109 FPS
Color space : YUV
Chroma subsampling : 4:2:0
Bit depth : 8 bits
Scan type : Progressive
Bits/(Pixel*Frame) : 0.129
Stream size : 64.6 MiB (94%)
Tagged date : UTC 2014-02-23 12:42:51

Audio
ID : 2
Format : AAC
Format/Info : Advanced Audio Codec
Format profile : LC
Codec ID : 40
Duration : 3 min
Bit rate mode : Variable
Bit rate : 192 kb/s
Maximum bit rate : 201 kb/s
Channel(s) : 2 channels
Channel positions : Front: L R
Sampling rate : 44.1 kHz
Frame rate : 43.066 FPS (1024 spf)
Compression mode : Lossy
Stream size : 4.17 MiB (6%)
Title : IsoMedia File Produced by Google, 5-11-2011
Encoded date : UTC 2014-02-23 12:42:50
Tagged date : UTC 2014-02-23 12:42:51
Для просмотра содержимого вам необходимо авторизоваться.
 
Последнее редактирование:

admin

Супер активный
Команда форума
Сообщения
464
Симпатии
12
Баллы
34
#4

Название: Финал конкурса «Гран-При Санкт-Петербурга», Международный конкурс вокалистов, БКЗ Октябрьский, 29. 11. 2012 [2]
Жанр: Концерт
Участники: А. Ковальчук и И. Ожогин
Дата выхода: 25-29 ноября, 2012
Место съёмки: БКЗ Октябрьский, СПб
General
Complete name : Финал конкурса «Гран-При Санкт-Петербурга», Международный конкурс вокалистов, БКЗ Октябрьский, 29. 11. 2012 [2].mp4
Format : MPEG-4
Format profile : Base Media
Codec ID : isom (isom/iso2/avc1/mp41)
File size : 114 MiB
Duration : 2 min
Overall bit rate : 5 623 kb/s
Writing application : Lavf57.2.100

Video
ID : 1
Format : AVC
Format/Info : Advanced Video Codec
Format profile : High@L4.2
Format settings, CABAC : Yes
Format settings, ReFrames : 3 frames
Codec ID : avc1
Codec ID/Info : Advanced Video Coding
Duration : 2 min
Bit rate : 5 489 kb/s
Width : 1 920 pixels
Height : 1 080 pixels
Display aspect ratio : 16:9
Frame rate mode : Constant
Frame rate : 50.000 FPS
Color space : YUV
Chroma subsampling : 4:2:0
Bit depth : 8 bits
Scan type : Progressive
Bits/(Pixel*Frame) : 0.053
Stream size : 111 MiB (98%)

Audio
ID : 2
Format : AAC
Format/Info : Advanced Audio Codec
Format profile : LC
Codec ID : 40
Duration : 2 min
Bit rate mode : Constant
Bit rate : 126 kb/s
Channel(s) : 2 channels
Channel positions : Front: L R
Sampling rate : 44.1 kHz
Frame rate : 43.066 FPS (1024 spf)
Compression mode : Lossy
Stream size : 2.55 MiB (2%)
Default : Yes
Alternate group : 1
Для просмотра содержимого вам необходимо авторизоваться.
 
Последнее редактирование:
Сверху Снизу