• Уважаемые посетители! По тех. причинам регистрация отключена!

Видео Интервью «XI Зимнего международного фестиваля искусств в Сочи» [19.02.2018]

admin

Супер активный
Команда форума
Сообщения
400
Симпатии
7
Баллы
34
#1

Название: «XI Зимнего международного фестиваля искусств в Сочи» [19.02.2018] [канал РоссияК»]
Жанр: Интервью, репортаж
Канал: РоссияК
Дата выхода:
19.02.2018
General
Complete name : «XI Зимнего международного фестиваля искусств в Сочи» [19.02.2018] [канал РоссияК»].mp4
Format : MPEG-4
Codec ID : M4V (isom/avc1/mp42)
File size : 33.4 MiB
Duration : 3 min
Overall bit rate mode : Variable
Overall bit rate : 1 302 kb/s
Encoded date : UTC 2018-02-20 07:55:29
Tagged date : UTC 2018-02-20 07:55:29

Video
ID : 1
Format : AVC
Format/Info : Advanced Video Codec
Format profile : Main@L3.1
Format settings, CABAC : Yes
Format settings, ReFrames : 2 frames
Format settings, GOP : M=3, N=60
Codec ID : avc1
Codec ID/Info : Advanced Video Coding
Duration : 3 min
Bit rate mode : Variable
Bit rate : 1 203 kb/s
Maximum bit rate : 2 000 kb/s
Width : 960 pixels
Height : 540 pixels
Display aspect ratio : 16:9
Frame rate mode : Constant
Frame rate : 25.000 FPS
Color space : YUV
Chroma subsampling : 4:2:0
Bit depth : 8 bits
Scan type : Progressive
Bits/(Pixel*Frame) : 0.093
Stream size : 30.8 MiB (92%)
Encoded date : UTC 2018-02-20 07:55:29
Tagged date : UTC 2018-02-20 07:55:29

Audio
ID : 2
Format : AAC
Format/Info : Advanced Audio Codec
Format profile : LC
Codec ID : 40
Duration : 3 min
Bit rate mode : Variable
Bit rate : 96.0 kb/s
Maximum bit rate : 104 kb/s
Channel(s) : 2 channels
Channel positions : Front: L R
Sampling rate : 48.0 kHz
Frame rate : 46.875 FPS (1024 spf)
Compression mode : Lossy
Stream size : 2.40 MiB (7%)
Encoded date : UTC 2018-02-20 07:55:29
Tagged date : UTC 2018-02-20 07:55:29
Для просмотра содержимого вам необходимо авторизоваться.
 
Последнее редактирование:

admin

Супер активный
Команда форума
Сообщения
400
Симпатии
7
Баллы
34
#2

Название: «XI Зимнего международного фестиваля искусств в Сочи» [19.02.2018] [канал euronews»]
Жанр: Интервью, репортаж
Канал: euronews
Дата выхода: 19.02.2018
General
Complete name : «XI Зимнего международного фестиваля искусств в Сочи» [19.02.2018] [канал euronews»].mp4
Format : MPEG-4
Format profile : Base Media / Version 2
Codec ID : mp42 (mp42/isom)
File size : 37.4 MiB
Duration : 4 min
Overall bit rate mode : Variable
Overall bit rate : 1 307 kb/s
Encoded date : UTC 2018-02-23 19:40:41
Tagged date : UTC 2018-02-23 19:40:41

Video
ID : 1
Format : AVC
Format/Info : Advanced Video Codec
Format profile : Main@L3
Format settings, CABAC : Yes
Format settings, ReFrames : 3 frames
Codec ID : avc1
Codec ID/Info : Advanced Video Coding
Duration : 4 min
Bit rate mode : Variable
Bit rate : 1 173 kb/s
Maximum bit rate : 1 567 kb/s
Width : 720 pixels
Height : 404 pixels
Display aspect ratio : 16:9
Frame rate mode : Constant
Frame rate : 25.000 FPS
Standard : PAL
Color space : YUV
Chroma subsampling : 4:2:0
Bit depth : 8 bits
Scan type : Progressive
Bits/(Pixel*Frame) : 0.161
Stream size : 33.6 MiB (90%)
Title : Telestream Inc. Telestream Media Framework - Release TXGP 2016.51.197511
Encoded date : UTC 2018-02-23 19:40:41
Tagged date : UTC 2018-02-22 18:41:31
Color range : Limited

Audio
ID : 2
Format : AAC
Format/Info : Advanced Audio Codec
Format profile : LC
Codec ID : 40
Duration : 4 min
Source duration : 4 min
Bit rate mode : Constant
Bit rate : 128 kb/s
Channel(s) : 2 channels
Channel positions : Front: L R
Sampling rate : 48.0 kHz
Frame rate : 46.875 FPS (1024 spf)
Compression mode : Lossy
Stream size : 3.66 MiB (10%)
Source stream size : 3.66 MiB (10%)
Title : Telestream Inc. Telestream Media Framework - Release TXGP 2016.51.197511
Encoded date : UTC 2018-02-23 19:40:41
Tagged date : UTC 2018-02-22 18:41:31
Для просмотра содержимого вам необходимо авторизоваться.
 
Последнее редактирование:

admin

Супер активный
Команда форума
Сообщения
400
Симпатии
7
Баллы
34
#3

Название: «XI Зимнего международного фестиваля искусств в Сочи» [19.02.2018] [канал ParkInfo»]
Жанр: Интервью, репортаж
Канал: ParkInfo
Дата выхода: 19.02.2018
General
Complete name :«XI Зимнего международного фестиваля искусств в Сочи» [19.02.2018] [канал ParkInfo»].mp4
Format : MPEG-4
Format profile : Base Media / Version 2
Codec ID : mp42 (isom/mp42)
File size : 133 MiB
Duration : 10 min
Overall bit rate mode : Variable
Overall bit rate : 1 770 kb/s
Encoded date : UTC 2018-03-03 17:32:36
Tagged date : UTC 2018-03-03 17:32:36
gsst : 0
gstd : 628239

Video
ID : 1
Format : AVC
Format/Info : Advanced Video Codec
Format profile : Main@L3.1
Format settings, CABAC : Yes
Format settings, ReFrames : 3 frames
Codec ID : avc1
Codec ID/Info : Advanced Video Coding
Duration : 10 min
Bit rate : 1 641 kb/s
Width : 1 280 pixels
Height : 720 pixels
Display aspect ratio : 16:9
Frame rate mode : Constant
Frame rate : 25.000 FPS
Color space : YUV
Chroma subsampling : 4:2:0
Bit depth : 8 bits
Scan type : Progressive
Bits/(Pixel*Frame) : 0.071
Stream size : 123 MiB (93%)
Title : ISO Media file produced by Google Inc. Created on: 03/03/2018.
Encoded date : UTC 2018-03-03 17:32:36
Tagged date : UTC 2018-03-03 17:32:36
Color range : Limited
Color primaries : BT.709
Transfer characteristics : BT.709
Matrix coefficients : BT.709

Audio
ID : 2
Format : AAC
Format/Info : Advanced Audio Codec
Format profile : LC
Codec ID : 40
Duration : 10 min
Bit rate mode : Variable
Bit rate : 126 kb/s
Channel(s) : 2 channels
Channel positions : Front: L R
Sampling rate : 44.1 kHz
Frame rate : 43.066 FPS (1024 spf)
Compression mode : Lossy
Stream size : 9.40 MiB (7%)
Title : ISO Media file produced by Google Inc. Created on: 03/03/2018.
Encoded date : UTC 2018-03-03 17:32:36
Tagged date : UTC 2018-03-03 17:32:36
Для просмотра содержимого вам необходимо авторизоваться.
 
Последнее редактирование:
Вверх Снизу