• Уважаемые посетители! По тех. причинам регистрация отключена!

Видео Концерт «Нескучная неКлассика» [А. Ковальчук и А. Жалилов] [8.01.2014 - ДК им. Горького, СПб]

admin

Супер активный
Команда форума
Сообщения
402
Симпатии
7
Баллы
34
#1

Название: Анна Ковальчук и Альберт Жалилов [Концерт «Нескучная неКлассика»][8.01.2014]
Жанр: Концерт
Участники: А. Ковальчук и А. Жалилов
Дата выхода: 8.01.2014
Место съёмки: ДК им. Горького, СПб
General
Complete name : Анна Ковальчук и Альберт Жалилов [Концерт «Нескучная неКлассика»][8.01.2014].mp4
Format : MPEG-4
Format profile : Base Media
Codec ID : isom (isom/iso2/avc1/mp41)
File size : 1.02 GiB
Duration : 30 min
Overall bit rate : 4 804 kb/s
Writing application : Lavf57.2.100

Video
ID : 1
Format : AVC
Format/Info : Advanced Video Codec
Format profile : High@L4.2
Format settings, CABAC : Yes
Format settings, ReFrames : 3 frames
Codec ID : avc1
Codec ID/Info : Advanced Video Coding
Duration : 30 min
Bit rate : 4 669 kb/s
Width : 1 920 pixels
Height : 1 080 pixels
Display aspect ratio : 16:9
Frame rate mode : Constant
Frame rate : 50.000 FPS
Color space : YUV
Chroma subsampling : 4:2:0
Bit depth : 8 bits
Scan type : Progressive
Bits/(Pixel*Frame) : 0.045
Stream size : 1 011 MiB (97%)

Audio
ID : 2
Format : AAC
Format/Info : Advanced Audio Codec
Format profile : LC
Codec ID : 40
Duration : 30 min
Bit rate mode : Constant
Bit rate : 126 kb/s
Channel(s) : 2 channels
Channel positions : Front: L R
Sampling rate : 44.1 kHz
Frame rate : 43.066 FPS (1024 spf)
Compression mode : Lossy
Stream size : 27.2 MiB (3%)
Default : Yes
Alternate group : 1
Для просмотра содержимого вам необходимо авторизоваться.
 
Последнее редактирование:

admin

Супер активный
Команда форума
Сообщения
402
Симпатии
7
Баллы
34
#2
Re: А. Жалилов и А. Ковальчук - «Эхо любви» [Концерт «Нескучная неКлассика»][8.01.2014]


Название: А. Жалилов и А. Ковальчук - «Эхо любви» [Концерт «Нескучная неКлассика»][8.01.2014]
Жанр: Концерт
Участники: А. Ковальчук и А. Жалилов
Дата выхода: 8.01.2014
Место съёмки: ДК им. Горького, СПб
General
Complete name : А. Жалилов и А. Ковальчук - «Эхо любви» [Концерт «Нескучная неКлассика»][8.01.2014].mp4
Format : MPEG-4
Format profile : Base Media
Codec ID : isom (isom/iso2/avc1/mp41)
File size : 54.1 MiB
Duration : 3 min
Overall bit rate : 2 041 kb/s
Writing application : Lavf57.2.100

Video
ID : 1
Format : AVC
Format/Info : Advanced Video Codec
Format profile : High@L4
Format settings, CABAC : Yes
Format settings, ReFrames : 3 frames
Codec ID : avc1
Codec ID/Info : Advanced Video Coding
Duration : 3 min
Bit rate : 1 910 kb/s
Width : 1 920 pixels
Height : 1 080 pixels
Display aspect ratio : 16:9
Frame rate mode : Constant
Frame rate : 24.038 FPS
Color space : YUV
Chroma subsampling : 4:2:0
Bit depth : 8 bits
Scan type : Progressive
Bits/(Pixel*Frame) : 0.038
Stream size : 50.6 MiB (94%)

Audio
ID : 2
Format : AAC
Format/Info : Advanced Audio Codec
Format profile : LC
Codec ID : 40
Duration : 3 min
Bit rate mode : Constant
Bit rate : 126 kb/s
Channel(s) : 2 channels
Channel positions : Front: L R
Sampling rate : 44.1 kHz
Frame rate : 43.066 FPS (1024 spf)
Compression mode : Lossy
Stream size : 3.33 MiB (6%)
Default : Yes
Alternate group : 1
Для просмотра содержимого вам необходимо авторизоваться.
 
Последнее редактирование:
Вверх Снизу