• Уважаемые пользователи! Раздел фотогалерея снова доступен для просмотра. Добро Пожаловать!
  • Ув. посетители! Регистрируемся! Только от вас зависит какому ресурсу администрация будет уделять больше времени.

Видео «Малые родины большого Петербурга» - специальный проект телеканала «Санкт-Петербург»

admin

Супер активный
Команда форума
Сообщения
387
Симпатии
7
Баллы
43
#1
«Малые родины большого Петербурга» - специальный проект телеканала «Санкт-Петербург» об исторических районах города, с их настроением, культурной средой и знаковыми архитектурными объектами.
«Малые родины» – это районы Петербурга, с которых город начинался и которыми продолжается. У каждого петербуржца тоже есть своя «малая родина», это часть города, где он родился или прожил много лет: Лиговка, Купчино, Семенцы, Пески, Озерки, Ржевка-Пороховые, Коломна, Лахта, Гавань и другие.
Историю места и времени вместе с авторами программы рассказывают петербуржцы: старожилы, краеведы, писатели, артисты, художники.


Название: «Малые родины большого Петербурга» - Полюстрово [15.11.2013] [канал Санкт-Петербург»]
Жанр: Интервью, репортаж
Канал: Санкт-Петербург
Дата выхода: 15.11.2013
General
Complete name : «Малые родины большого Петербурга» -Полюстрово.mp4
Format : MPEG-4
Format profile : Base Media
Codec ID : isom (isom/iso2/avc1/mp41)
File size : 23.2 MiB
Duration : 1:57 min
Overall bit rate mode : Variable
Overall bit rate : 1 669 kb/s
Writing application : Lavf55.33.100

Video
ID : 1
Format : AVC
Format/Info : Advanced Video Codec
Format profile : High@L3.1
Format settings, CABAC : Yes
Format settings, ReFrames : 2 frames
Format settings, GOP : M=2, N=24
Codec ID : avc1
Codec ID/Info : Advanced Video Coding
Duration : 1:57 min
Bit rate : 1 576 kb/s
Width : 720 pixels
Height : 540 pixels
Display aspect ratio : 4:3
Frame rate mode : Constant
Frame rate : 25.000 FPS
Standard : NTSC
Color space : YUV
Chroma subsampling : 4:2:0
Bit depth : 8 bits
Scan type : Progressive
Bits/(Pixel*Frame) : 0.162
Stream size : 22.0 MiB (94%)
Color range : Limited
Color primaries : BT.601 NTSC
Transfer characteristics : BT.601
Matrix coefficients : BT.601

Audio
ID : 2
Format : AAC
Format/Info : Advanced Audio Codec
Format profile : LC
Codec ID : 40
Duration : 1:57 min
Bit rate mode : Variable
Bit rate : 88.6 kb/s
Maximum bit rate : 192 kb/s
Channel(s) : 2 channels
Channel positions : Front: L R
Sampling rate : 48.0 kHz
Frame rate : 46.875 FPS (1024 spf)
Compression mode : Lossy
Stream size : 1.23 MiB (5%)
Default : Yes
Alternate group : 1
Для просмотра содержимого вам необходимо авторизоваться.
Для просмотра содержимого вам необходимо авторизоваться.
 
Последнее редактирование:
Вверх Снизу