• Уважаемые посетители и пользователи! В настоящее время у Анны Ковальчук в инстаграм 56,8 тыс. подписчиков! Как вы уже заметили на нашем форуме есть публикации, защищенные паролем. За каждые 150 000 подписчиков в инстаграм Анны Ковальчук мы будем открывать по 2 запароленные темы. Какие именно выберем на голосовании. Т.е. для разблокировки 2-х тем на данный момент нужно чтобы у Анны в инстаграм было не 56,8 тыс. подписчиков, а 150 000! Подписываемся :)

Видео Музыкальные видеоклипы с участием Анны Ковальчук

admin

Мега активный
Команда форума
Администратор
Сообщения
756
Баллы
114

Название: Группа «КАФЕ» - «Чушь»
Жанр:
Музыкальный видеоклип
Дата выхода: Нет информации!
Продолжительность: 00:04:29
Разрешение: 1920x1080
Размер: 95.5 мб
Общее
Полное имя : Группа «КАФЕ» - «Чушь».mp4
Формат : MPEG-4
Профиль формата : Base Media
Идентификатор кодека : isom (isom/iso2/avc1/mp41)
Размер файла : 96,6 Мбайт
Продолжительность : 4 м. 29 с.
Общий поток : 3007 Кбит/сек
Программа кодирования : Lavf56.15.100

Видео
Идентификатор : 1
Формат : AVC
Формат/Информация : Advanced Video Codec
Профиль формата : High@L4
Настройки формата : CABAC / 2 Ref Frames
Параметр CABAC формата : Да
Параметр RefFrames формата : 2 кадра
Идентификатор кодека : avc1
Идентификатор кодека/Информация : Advanced Video Coding
Продолжительность : 4 м. 29 с.
Битрейт : 2876 Кбит/сек
Ширина : 1920 пикселей
Высота : 1080 пикселей
Соотношение сторон : 16:9
Режим частоты кадров : Постоянный
Частота кадров : 25,000 кадров/сек
Цветовое пространство : YUV
Субдискретизация насыщенности : 4:2:0
Битовая глубина : 8 бит
Тип развёртки : Прогрессивная
Бит/(Пиксели*Кадры) : 0.055
Размер потока : 92,3 Мбайт (96%)
Codec configuration box : avcC

Аудио
Идентификатор : 2
Формат : AAC LC
Формат/Информация : Advanced Audio Codec Low Complexity
Идентификатор кодека : mp4a-40-2
Продолжительность : 4 м. 29 с.
Вид битрейта : Постоянный
Битрейт : 126 Кбит/сек
Каналы : 2 канала
ChannelLayout : L R
Частота : 44,1 КГц
Частота кадров : 43,066 кадра/сек (1024 SPF)
Метод сжатия : С потерями
Размер потока : 4,03 Мбайт (4%)
Default : Да
AlternateGroup/String : 1
Скрытое содержимое могут видеть только пользователь группы: Member
 

admin

Мега активный
Команда форума
Администратор
Сообщения
756
Баллы
114

Название: Михаил Шуфутинский - «Я просто медленно люблю» (OFFICIAL VID)
Жанр:
Музыкальный видеоклип
Дата выхода: 5 сент. 2014 г.
Лицензиар: NDA Sound (от лица компании "АО "ЮМ Групп""); United Music Group
Продолжительность: 00:03:42
Разрешение: 1280x720
Размер: 46.1 мб
Общее
Полное имя : Михаил Шуфутинский - Я просто медленно люблю (OFFICIAL VID).mp4
Формат : MPEG-4
Профиль формата : Base Media / Version 2
Идентификатор кодека : mp42 (isom/mp42)
Размер файла : 46,2 Мбайт
Продолжительность : 3 м. 42 с.
Режим общего битрейта : Переменный
Общий поток : 1743 Кбит/сек
Дата кодирования : UTC 2014-09-05 08:43:09
Дата пометки : UTC 2014-09-05 08:43:09
gsst : 0
gstd : 222400
gssd : B4A7DAD04HH1409941377885339
gshh : r12---sn-axq7en7e.googlevideo.com

Видео
Идентификатор : 1
Формат : AVC
Формат/Информация : Advanced Video Codec
Профиль формата : High@L3.1
Настройки формата : CABAC / 1 Ref Frames
Параметр CABAC формата : Да
Параметр RefFrames формата : 1 кадр
Идентификатор кодека : avc1
Идентификатор кодека/Информация : Advanced Video Coding
Продолжительность : 3 м. 42 с.
Битрейт : 1548 Кбит/сек
Максимальный битрейт : 3066 Кбит/сек
Ширина : 1280 пикселей
Высота : 720 пикселей
Соотношение сторон : 16:9
Режим частоты кадров : Постоянный
Частота кадров : 25,000 кадров/сек
Цветовое пространство : YUV
Субдискретизация насыщенности : 4:2:0
Битовая глубина : 8 бит
Тип развёртки : Прогрессивная
Бит/(Пиксели*Кадры) : 0.067
Размер потока : 41,0 Мбайт (89%)
Дата пометки : UTC 2014-09-05 08:43:10
Codec configuration box : avcC

Аудио
Идентификатор : 2
Формат : AAC LC
Формат/Информация : Advanced Audio Codec Low Complexity
Идентификатор кодека : mp4a-40-2
Продолжительность : 3 м. 42 с.
Вид битрейта : Переменный
Битрейт : 192 Кбит/сек
Максимальный битрейт : 201 Кбит/сек
Каналы : 2 канала
ChannelLayout : L R
Частота : 44,1 КГц
Частота кадров : 43,066 кадра/сек (1024 SPF)
Метод сжатия : С потерями
Размер потока : 5,09 Мбайт (11%)
Заголовок : IsoMedia File Produced by Google, 5-11-2011
Дата кодирования : UTC 2014-09-05 08:43:10
Дата пометки : UTC 2014-09-05 08:43:10
Скрытое содержимое могут видеть только пользователь группы: Member
 


Сверху Снизу