• У вас есть интересные материалы (фото, видео, статьи и т.п.), и вы хотите, чтобы они были опубликованы у нас на форуме? Можете отправить их на наши @-mail адреса: support@anna-kovalchuk.h1n.ru или deutschgrundkurs@ya.ru Важно! Не забудьте указать свое имя или никнейм. Спасибо!!

Видео Новогодняя Т/П «Голубой огонек 2020» [Россия 1, 1.01.2020]


admin

Мега активный
Команда форума
Администратор
Сообщения
718
Баллы
89

Название: Новогодняя Т/П «Голубой огонек 2020» [Россия 1, 1.01.2020] (НАРЕЗКА)
Жанр:
Шоу
Канал: Россия1
Дата выхода: 01.01.2020
Продолжительность: 00:06:37
Разрешение: 1920x1080
Размер: 392.0 мб
Ведущие:
Анна Ковальчук — российская актриса театра и кино, заслуженная артистка Российской Федерации (2008).
Андрей Малахов — российский тележурналист, шоумен, продюсер, актёр, главный редактор журнала «StarHit» и т.д.
Общее
Полное имя : Голубой огонек 2020 [01.01.2020].mp4
Формат : MPEG-4
Профиль формата : Base Media
Идентификатор кодека : isom (isom/iso2/mp41)
Размер файла : 393 Мбайт
Продолжительность : 6 м. 36 с.
Режим общего битрейта : Постоянный
Общий поток : 8307 Кбит/сек

Видео
Идентификатор : 1
Формат : MPEG-4 Visual
Профиль формата : Advanced Simple@L1
Параметр BVOP формата : Нет
Параметр QPel формата : Нет
Параметр GMC формата : Без точки перехода
Параметр матрицы формата : Default (H.263)
Идентификатор кодека : mp4v-20
Продолжительность : 6 м. 36 с.
Вид битрейта : Постоянный
Битрейт : 8104 Кбит/сек
Ширина : 1920 пикселей
Высота : 1080 пикселей
Соотношение сторон : 16:9
Режим частоты кадров : Постоянный
Частота кадров : 30,000 кадров/сек
Цветовое пространство : YUV
Субдискретизация насыщенности : 4:2:0
Битовая глубина : 8 бит
Тип развёртки : Прогрессивная
Метод сжатия : С потерями
Бит/(Пиксели*Кадры) : 0.130
Размер потока : 383 Мбайт (98%)
Библиотека кодирования : Lavc58.18.100

Аудио
Идентификатор : 2
Формат : AAC LC
Формат/Информация : Advanced Audio Codec Low Complexity
Идентификатор кодека : mp4a-40-2
Продолжительность : 6 м. 36 с.
Вид битрейта : Постоянный
Битрейт : 196 Кбит/сек
Каналы : 2 канала
ChannelLayout : L R
Частота : 48,0 КГц
Частота кадров : 46,875 кадров/сек (1024 SPF)
Метод сжатия : С потерями
Размер потока : 9,29 Мбайт (2%)
Default : Да
AlternateGroup/String : 1
Для просмотра скрытого содержимого необходимо Войти или Зарегистрироваться.
 


Сверху Снизу