• Уважаемые пользователи! Раздел фотогалерея снова доступен для просмотра. Добро Пожаловать!
  • Ув. посетители! Регистрируемся! Только от вас зависит какому ресурсу администрация будет уделять больше времени.

Видео Съемки многосерийного фильма «Годунов» [Телерадиокомпания «Губерния-33», Суздаль, 25.06.18]

admin

Супер активный
Команда форума
Сообщения
387
Симпатии
7
Баллы
43
#1
В Суздале завершились съемки многосерийного фильма «Годунов». В последний день работы снимались северные сцены картины, действие которых происходит в Холмогорах.


Название: Съемки многосерийного фильма «Годунов» [Телерадиокомпания «Губерния-33», Суздаль, 25.06.18]
Жанр: Интервью, репортаж
Канал: Телерадиокомпания «Губерния-33»
Дата выхода: 25.06.2018
General
Complete name : Съемки многосерийного фильма «Годунов» [Телерадиокомпания «Губерния-33», Суздаль, 25.06.18].mp4
Format : MPEG-4
Format profile : Base Media
Codec ID : isom (isom/iso2/avc1/mp41)
File size : 109 MiB
Duration : 1 min
Overall bit rate mode : Variable
Overall bit rate : 8 086 kb/s
Writing application : Lavf55.33.100

Video
ID : 1
Format : AVC
Format/Info : Advanced Video Codec
Format profile : High@L4
Format settings, CABAC : Yes
Format settings, ReFrames : 2 frames
Codec ID : avc1
Codec ID/Info : Advanced Video Coding
Duration : 1 min
Bit rate : 7 976 kb/s
Width : 1 920 pixels
Height : 1 080 pixels
Display aspect ratio : 16:9
Frame rate mode : Constant
Frame rate : 25.000 FPS
Color space : YUV
Chroma subsampling : 4:2:0
Bit depth : 8 bits
Scan type : Progressive
Bits/(Pixel*Frame) : 0.154
Stream size : 108 MiB (99%)
Color range : Limited
Color primaries : BT.709
Transfer characteristics : BT.709
Matrix coefficients : BT.709

Audio
ID : 2
Format : AAC
Format/Info : Advanced Audio Codec
Format profile : LC
Codec ID : 40
Duration : 1 min
Bit rate mode : Variable
Bit rate : 105 kb/s
Maximum bit rate : 192 kb/s
Channel(s) : 2 channels
Channel positions : Front: L R
Sampling rate : 48.0 kHz
Frame rate : 46.875 FPS (1024 spf)
Compression mode : Lossy
Stream size : 1.41 MiB (1%)
Default : Yes
Alternate group : 1
Для просмотра содержимого вам необходимо авторизоваться.
 
Вверх Снизу