Видео Спектакль: «Иллюзии» [Автор И. Вырыпаев] [Концертный зал «Колизей» (Невский пр., 100, СПб)]

Кто читал эту тему (Всего: 0) Подробнее...

Кто просматривает эту тему (Всего: 1, Пользователей: 0, Гостей: 1)

mrcelebs

Проверенный
Пользователь
Сообщения
25
Симпатии
2
Баллы
4
#1


Название: «Иллюзии» [Автор И. Вырыпаев] [Концертный зал «Колизей»][фрагмент 1]
Жанр: Спектакль
Продолжительность: 00:09:55
Место съемки: [Концертный зал «Колизей» (Невский пр., 100, СПб)]
General
Complete name : «Иллюзии» [Автор И. Вырыпаев] [Концертный зал «Колизей»][фрагмент 1].mp4
Format : MPEG-4
Format profile : Base Media
Codec ID : isom (isom/iso2/avc1/mp41)
File size : 491 MiB
Duration : 9 min
Overall bit rate mode : Variable
Overall bit rate : 6 925 kb/s

Video
ID : 1
Format : AVC
Format/Info : Advanced Video Codec
Format profile : High@L4.2
Format settings, CABAC : Yes
Format settings, ReFrames : 4 frames
Codec ID : avc1
Codec ID/Info : Advanced Video Coding
Duration : 9 min
Bit rate : 6 750 kb/s
Width : 1 912 pixels
Original width : 1 920 pixels
Height : 1 088 pixels
Original height : 1 080 pixels
Display aspect ratio : 16:9
Original display aspect rat : 16:9
Frame rate mode : Variable
Frame rate : 50.000 FPS
Minimum frame rate : 12.500 FPS
Maximum frame rate : 200.000 FPS
Color space : YUV
Chroma subsampling : 4:2:0
Bit depth : 8 bits
Scan type : Progressive
Bits/(Pixel*Frame) : 0.065
Stream size : 479 MiB (98%)
Writing library : x264 core 142
Encoding settings : cabac=1 / ref=3 / deblock=1:0:0 / analyse=0x3:0x113 / me=hex / subme=7 / psy=1 / psy_rd=1.00:0.00 / mixed_ref=1 / me_range=16 / chroma_me=1 / trellis=1 / 8x8dct=1 / cqm=0 / deadzone=21,11 / fast_pskip=1 / chroma_qp_offset=-2 / threads=6 / lookahead_threads=1 / sliced_threads=0 / nr=0 / decimate=1 / interlaced=0 / bluray_compat=0 / constrained_intra=0 / bframes=3 / b_pyramid=2 / b_adapt=1 / b_bias=0 / direct=1 / weightb=1 / open_gop=0 / weightp=2 / keyint=50 / keyint_min=5 / scenecut=40 / intra_refresh=0 / rc_lookahead=40 / rc=2pass / mbtree=1 / bitrate=6750 / ratetol=1.0 / qcomp=0.60 / qpmin=0 / qpmax=69 / qpstep=4 / cplxblur=20.0 / qblur=0.5 / ip_ratio=1.40 / aq=1:1.00

Audio
ID : 2
Format : AAC
Format/Info : Advanced Audio Codec
Codec ID : 40
Duration : 9 min
Bit rate mode : Variable
Bit rate : 154 kb/s
Channel(s) : 2 channels
Sampling rate : 44.1 kHz
Frame rate : 43.066 FPS (1024 spf)
Compression mode : Lossy
Stream size : 10.9 MiB (2%)
Для просмотра содержимого вам необходимо авторизоваться.




Название: «Иллюзии» [Автор И. Вырыпаев] [Концертный зал «Колизей»][фрагмент 2]
Жанр: Спектакль
Продолжительность: 00:09:30
Место съемки: [Концертный зал «Колизей» (Невский пр., 100, СПб)]
General
Complete name : «Иллюзии» [Автор И. Вырыпаев] [Концертный зал «Колизей»][фрагмент 2].mp4
Format : MPEG-4
Format profile : Base Media
Codec ID : isom (isom/iso2/avc1/mp41)
File size : 471 MiB
Duration : 9 min
Overall bit rate mode : Variable
Overall bit rate : 6 927 kb/s

Video
ID : 1
Format : AVC
Format/Info : Advanced Video Codec
Format profile : High@L4.2
Format settings, CABAC : Yes
Format settings, ReFrames : 4 frames
Codec ID : avc1
Codec ID/Info : Advanced Video Coding
Duration : 9 min
Bit rate : 6 750 kb/s
Width : 1 912 pixels
Original width : 1 920 pixels
Height : 1 088 pixels
Original height : 1 080 pixels
Display aspect ratio : 16:9
Original display aspect rat : 16:9
Frame rate mode : Variable
Frame rate : 50.000 FPS
Minimum frame rate : 12.500 FPS
Maximum frame rate : 200.000 FPS
Color space : YUV
Chroma subsampling : 4:2:0
Bit depth : 8 bits
Scan type : Progressive
Bits/(Pixel*Frame) : 0.065
Stream size : 460 MiB (98%)
Writing library : x264 core 142
Encoding settings : cabac=1 / ref=3 / deblock=1:0:0 / analyse=0x3:0x113 / me=hex / subme=7 / psy=1 / psy_rd=1.00:0.00 / mixed_ref=1 / me_range=16 / chroma_me=1 / trellis=1 / 8x8dct=1 / cqm=0 / deadzone=21,11 / fast_pskip=1 / chroma_qp_offset=-2 / threads=6 / lookahead_threads=1 / sliced_threads=0 / nr=0 / decimate=1 / interlaced=0 / bluray_compat=0 / constrained_intra=0 / bframes=3 / b_pyramid=2 / b_adapt=1 / b_bias=0 / direct=1 / weightb=1 / open_gop=0 / weightp=2 / keyint=50 / keyint_min=5 / scenecut=40 / intra_refresh=0 / rc_lookahead=40 / rc=2pass / mbtree=1 / bitrate=6750 / ratetol=1.0 / qcomp=0.60 / qpmin=0 / qpmax=69 / qpstep=4 / cplxblur=20.0 / qblur=0.5 / ip_ratio=1.40 / aq=1:1.00

Audio
ID : 2
Format : AAC
Format/Info : Advanced Audio Codec
Codec ID : 40
Duration : 9 min
Bit rate mode : Variable
Bit rate : 154 kb/s
Channel(s) : 2 channels
Sampling rate : 44.1 kHz
Frame rate : 43.066 FPS (1024 spf)
Compression mode : Lossy
Stream size : 10.5 MiB (2%)
Для просмотра содержимого вам необходимо авторизоваться.
 
Сверху Снизу