• У вас есть интересные материалы (фото, видео, статьи и т.п.), и вы хотите, чтобы они были опубликованы у нас на форуме? Можете отправить их на наши @-mail адреса: support@anna-kovalchuk.h1n.ru или deutschgrundkurs@ya.ru Важно! Не забудьте указать свое имя или никнейм. Спасибо!!

Видео Спектакль: «Мертвые души» [Отрывки] [Театр им. Ленсовета]


admin

Мега активный
Команда форума
Администратор
Сообщения
718
Баллы
89

Название: Спектакль «Мертвые души» [театр им. Ленсовета] [отрывок][1]
Жанр: Спектакль
Место съемки: Театр им «Ленсовета»
Продолжительность: 00:03:05
Разрешение: 1920x1080
Размер: 53,5 mb
Общее
Полное имя : Спектакль «Мертвые души» [театр им. Ленсовета] [отрывок][1].mp4
Формат : MPEG-4
Профиль формата : Base Media
Идентификатор кодека : isom (isom/iso2/avc1/mp41)
Размер файла : 53,5 Мбайт
Продолжительность : 3 м. 5 с.
Общий поток : 2418 Кбит/сек
Программа кодирования : Lavf57.2.100

Видео
Идентификатор : 1
Формат : AVC
Формат/Информация : Advanced Video Codec
Профиль формата : High@L4
Настройки формата : CABAC / 3 Ref Frames
Параметр CABAC формата : Да
Параметр RefFrames формата : 3 кадра
Идентификатор кодека : avc1
Идентификатор кодека/Информация : Advanced Video Coding
Продолжительность : 3 м. 5 с.
Битрейт : 2285 Кбит/сек
Ширина : 1920 пикселей
Высота : 1080 пикселей
Соотношение сторон : 16:9
Режим частоты кадров : Постоянный
Частота кадров : 25,000 кадров/сек
Цветовое пространство : YUV
Субдискретизация насыщенности : 4:2:0
Битовая глубина : 8 бит
Тип развёртки : Прогрессивная
Бит/(Пиксели*Кадры) : 0.044
Размер потока : 50,6 Мбайт (94%)
Цветовой диапазон : Limited
Основные цвета : BT.709
Характеристики трансфера : BT.709
Коэффициенты матрицы : BT.709
Codec configuration box : avcC

Аудио
Идентификатор : 2
Формат : AAC LC
Формат/Информация : Advanced Audio Codec Low Complexity
Идентификатор кодека : mp4a-40-2
Продолжительность : 3 м. 5 с.
Вид битрейта : Постоянный
Битрейт : 128 Кбит/сек
Каналы : 2 канала
Channel layout : L R
Частота : 44,1 КГц
Частота кадров : 43,066 кадра/сек (1024 SPF)
Метод сжатия : С потерями
Размер потока : 2,83 Мбайт (5%)
Default : Да
AlternateGroup/String : 1
Для просмотра скрытого содержимого необходимо Войти или Зарегистрироваться.
 

admin

Мега активный
Команда форума
Администратор
Сообщения
718
Баллы
89

Название: Спектакль «Мертвые души» [театр им. Ленсовета] [отрывок][2]
Жанр: Спектакль
Место съемки: Театр им «Ленсовета»
Продолжительность: 00:01:16
Разрешение: 1280x720
Размер: 18,3 mb
Общее
Полное имя : Спектакль «Мертвые души» [театр им. Ленсовета] [отрывок][2].mp4
Формат : MPEG-4
Профиль формата : Base Media
Идентификатор кодека : isom (isom/iso2/avc1/mp41)
Размер файла : 18,3 Мбайт
Продолжительность : 1 м. 16 с.
Режим общего битрейта : Переменный
Общий поток : 2009 Кбит/сек
Программа кодирования : Lavf58.20.100

Видео
Идентификатор : 1
Формат : AVC
Формат/Информация : Advanced Video Codec
Профиль формата : High@L3.1
Настройки формата : CABAC / 4 Ref Frames
Параметр CABAC формата : Да
Параметр RefFrames формата : 4 кадра
Параметр GOP формата : M=3, N=60
Идентификатор кодека : avc1
Идентификатор кодека/Информация : Advanced Video Coding
Продолжительность : 1 м. 16 с.
Вид битрейта : Переменный
Битрейт : 1800 Кбит/сек
Ширина : 1280 пикселей
Высота : 720 пикселей
Соотношение сторон : 16:9
Режим частоты кадров : Постоянный
Частота кадров : 30,000 кадров/сек
Цветовое пространство : YUV
Субдискретизация насыщенности : 4:2:0
Битовая глубина : 8 бит
Тип развёртки : Прогрессивная
Бит/(Пиксели*Кадры) : 0.065
Размер потока : 16,5 Мбайт (90%)
Codec configuration box : avcC

Аудио
Идентификатор : 2
Формат : AAC LC
Формат/Информация : Advanced Audio Codec Low Complexity
Идентификатор кодека : mp4a-40-2
Продолжительность : 1 м. 16 с.
Вид битрейта : Постоянный
Битрейт : 192 Кбит/сек
Каналы : 1 канал
ChannelLayout : C
Частота : 44,1 КГц
Частота кадров : 43,066 кадра/сек (1024 SPF)
Метод сжатия : С потерями
Размер потока : 1,75 Мбайт (10%)
Default : Да
AlternateGroup/String : 1
Для просмотра скрытого содержимого необходимо Войти или Зарегистрироваться.
 


Сверху Снизу