• Уважаемые посетители! По тех. причинам регистрация отключена!

Видео Т/П «Моё советское» [5-tv.ru]

admin

Супер активный
Команда форума
Сообщения
402
Симпатии
7
Баллы
34
#1

Название: «Мой Советский Новый Год»
Жанр: Интервью
Гость: Анна Ковальчук и др.
Канал: 5 канал, СПб.
Дата выхода: 31.12.2016

О программе:
Вместе с Михаилом Сергеевичем Боярским и его звёздными друзьями зрители переживут Новый год по-советски: вспомнят как охотились за праздничными заказами и украшали стол дефицитом, впервые смотрели «Иронию судьбы, или с легким паром!» и подпевали эстрадным шлягерам в «Голубом огоньке». А все, кто уже не застал того времени, откроют для себя много нового из жизни родителей и нашей страны.
General
ID : 0 (0x0)
Complete name : Мой Советский Новый Год - 31.12.2016.ts
Format : MPEG-TS
File size : 46.9 MiB
Duration : 2 min
Overall bit rate mode : Variable
Overall bit rate : 3 063 kb/s

Video
ID : 301 (0x12D)
Menu ID : 1 (0x1)
Format : AVC
Format/Info : Advanced Video Codec
Format profile : Main@L3
Format settings, CABAC : Yes
Format settings, ReFrames : 3 frames
Format settings, GOP : M=4, N=28
Codec ID : 27
Duration : 2 min
Bit rate : 2 717 kb/s
Width : 720 pixels
Height : 576 pixels
Display aspect ratio : 4:3
Frame rate : 25.000 FPS
Standard : Component
Color space : YUV
Chroma subsampling : 4:2:0
Bit depth : 8 bits
Scan type : Interlaced
Scan type, store method : Separated fields
Scan order : Top Field First
Bits/(Pixel*Frame) : 0.262
Stream size : 41.6 MiB (89%)
Color range : Limited
Color primaries : BT.601 PAL
Transfer characteristics : BT.470 System B, BT.470 System G
Matrix coefficients : BT.601

Audio
ID : 302 (0x12E)
Menu ID : 1 (0x1)
Format : MPEG Audio
Format version : Version 1
Format profile : Layer 2
Codec ID : 3
Duration : 2 min
Bit rate mode : Constant
Bit rate : 192 kb/s
Channel(s) : 2 channels
Sampling rate : 48.0 kHz
Compression mode : Lossy
Stream size : 2.94 MiB (6%)
Для просмотра содержимого вам необходимо авторизоваться.
 
Последнее редактирование:

admin

Супер активный
Команда форума
Сообщения
402
Симпатии
7
Баллы
34
#2

Название: «Мой советский двор»
Жанр: Интервью
Гость: Анна Ковальчук и др.
Канал: 5 канал, СПб.
Дата выхода: 10.09.2017

О программе:
Умение любить, дружить и прощать — всё это изначально мы с вами получали во дворе. «Мой советский двор» — один на всех и у каждого свой. Михаил Боярский — ведущий специального проекта Пятого канала «Моё советское» — вновь вернёт нас в тот чудесный мир детства с играми в классики, взрыванием пистонов, прыжками по крышам гаражей.
Российские звезды с удовольствием вспоминают, каким был их родной советский двор.
General
Complete name : ТП «Моё советское». [«Мой советский двор» ] 5-tv.ru.avi
Format : AVI
Format/Info : Audio Video Interleave
File size : 51.6 MiB
Duration : 3 min
Overall bit rate : 1 971 kb/s
Writing application : VirtualDubMod 1.5.10.3 | www.virtualdub-fr.org || (build 2550/release)
Writing library : Boilsoft AVI tool build 30012/release

Video
ID : 0
Format : MPEG-4 Visual
Format profile : Advanced Simple@L5
Format settings, BVOP : 2
Format settings, QPel : No
Format settings, GMC : No warppoints
Format settings, Matrix : Default (H.263)
Codec ID : XVID
Codec ID/Hint : XviD
Duration : 3 min
Bit rate : 1 769 kb/s
Width : 720 pixels
Height : 400 pixels
Display aspect ratio : 16:9
Frame rate : 25.000 FPS
Color space : YUV
Chroma subsampling : 4:2:0
Bit depth : 8 bits
Scan type : Progressive
Compression mode : Lossy
Bits/(Pixel*Frame) : 0.246
Stream size : 46.3 MiB (90%)
Writing library : XviD 73

Audio
ID : 1
Format : AC-3
Format/Info : Audio Coding 3
Mode extension : CM (complete main)
Format settings, Endianness : Big
Codec ID : 2000
Duration : 3 min
Bit rate mode : Constant
Bit rate : 192 kb/s
Channel(s) : 2 channels
Channel positions : Front: L R
Sampling rate : 48.0 kHz
Frame rate : 31.250 FPS (1536 spf)
Compression mode : Lossy
Stream size : 5.03 MiB (10%)
Alignment : Split accross interleaves
Interleave, duration : 40 ms (1.00 video frame)
Interleave, preload duratio : 500 ms
Для просмотра содержимого вам необходимо авторизоваться.
 
Последнее редактирование:
Вверх Снизу