• У вас есть интересные материалы (фото, видео, статьи и т.п.), и вы хотите, чтобы они были опубликованы у нас на форуме? Можете отправить их на наши @-mail адреса: support@anna-kovalchuk.h1n.ru или deutschgrundkurs@ya.ru Важно! Не забудьте указать свое имя или никнейм. Спасибо!!

Видео Т/П «Новогодний парад звёзд 2020» [31.12.2019]


admin

Мега активный
Команда форума
Администратор
Сообщения
718
Баллы
89

Название: Новогодняя Т/П «Новогодний парад звёзд 2020» [Россия 1, 1.12.2019] [1] (НАРЕЗКА) (FULLHD)
Жанр:
Шоу
Канал: Россия1
Дата выхода: 01.12.2019
Продолжительность: 00:03:21
Разрешение: 1920x1080
Размер: 246.0 мб
Анна Ковальчук и Андрей Малахов - Зима-холода
Общее
Полное имя : Новогодний парад звёзд 2020 (1).mp4
Формат : MPEG-4
Профиль формата : Base Media
Идентификатор кодека : isom (isom/iso2/avc1/mp41)
Размер файла : 247 Мбайт
Продолжительность : 3 м. 21 с.
Общий поток : 10,3 Мбит/сек

Видео
Идентификатор : 1
Формат : AVC
Формат/Информация : Advanced Video Codec
Профиль формата : Main@L4.2
Настройки формата : CABAC / 4 Ref Frames
Параметр CABAC формата : Да
Параметр RefFrames формата : 4 кадра
Параметр GOP формата : M=1, N=13
Идентификатор кодека : avc1
Идентификатор кодека/Информация : Advanced Video Coding
Продолжительность : 3 м. 21 с.
Битрейт : 10,1 Мбит/сек
Ширина : 1920 пикселей
Высота : 1080 пикселей
Соотношение сторон : 16:9
Режим частоты кадров : Постоянный
Частота кадров : 30,000 кадров/сек
Стандарт вещания : Component
Цветовое пространство : YUV
Субдискретизация насыщенности : 4:2:0
Битовая глубина : 8 бит
Тип развёртки : Прогрессивная
Бит/(Пиксели*Кадры) : 0.162
Размер потока : 242 Мбайт (98%)
Цветовой диапазон : Limited
Codec configuration box : avcC

Аудио
Идентификатор : 2
Формат : AAC LC
Формат/Информация : Advanced Audio Codec Low Complexity
Идентификатор кодека : mp4a-40-2
Продолжительность : 3 м. 21 с.
Вид битрейта : Постоянный
Битрейт : 192 Кбит/сек
Каналы : 2 канала
ChannelLayout : L R
Частота : 48,0 КГц
Частота кадров : 46,875 кадров/сек (1024 SPF)
Метод сжатия : С потерями
Размер потока : 4,71 Мбайт (2%)
Default : Да
AlternateGroup/String : 1
Для просмотра скрытого содержимого необходимо Войти или Зарегистрироваться.
 
Последнее редактирование:

admin

Мега активный
Команда форума
Администратор
Сообщения
718
Баллы
89

Название: Новогодняя Т/П «Новогодний парад звёзд 2020» [Россия 1, 1.12.2019] [2] (НАРЕЗКА) (FULLHD)
Жанр:
Шоу
Канал: Россия1
Дата выхода: 01.12.2019
Продолжительность: 00:03:03
Разрешение: 1920x1080
Размер: 224.0 мб
Анна Ковальчук и Гоша Куценко - Главное, чтобы преступник сидел
Общее
Полное имя : Новогодний парад звеёд 2020 (2).mp4
Формат : MPEG-4
Профиль формата : Base Media
Идентификатор кодека : isom (isom/iso2/avc1/mp41)
Размер файла : 225 Мбайт
Продолжительность : 3 м. 3 с.
Общий поток : 10,3 Мбит/сек

Видео
Идентификатор : 1
Формат : AVC
Формат/Информация : Advanced Video Codec
Профиль формата : Main@L4.2
Настройки формата : CABAC / 4 Ref Frames
Параметр CABAC формата : Да
Параметр RefFrames формата : 4 кадра
Параметр GOP формата : M=1, N=13
Идентификатор кодека : avc1
Идентификатор кодека/Информация : Advanced Video Coding
Продолжительность : 3 м. 3 с.
Битрейт : 10,1 Мбит/сек
Ширина : 1920 пикселей
Высота : 1080 пикселей
Соотношение сторон : 16:9
Режим частоты кадров : Постоянный
Частота кадров : 30,000 кадров/сек
Стандарт вещания : Component
Цветовое пространство : YUV
Субдискретизация насыщенности : 4:2:0
Битовая глубина : 8 бит
Тип развёртки : Прогрессивная
Бит/(Пиксели*Кадры) : 0.162
Размер потока : 220 Мбайт (98%)
Цветовой диапазон : Limited
Codec configuration box : avcC

Аудио
Идентификатор : 2
Формат : AAC LC
Формат/Информация : Advanced Audio Codec Low Complexity
Идентификатор кодека : mp4a-40-2
Продолжительность : 3 м. 3 с.
Вид битрейта : Постоянный
Битрейт : 197 Кбит/сек
Каналы : 2 канала
ChannelLayout : L R
Частота : 48,0 КГц
Частота кадров : 46,875 кадров/сек (1024 SPF)
Метод сжатия : С потерями
Размер потока : 4,31 Мбайт (2%)
Default : Да
AlternateGroup/String : 1
Для просмотра скрытого содержимого необходимо Войти или Зарегистрироваться.
 
Последнее редактирование:


Сверху Снизу