• Уважаемые посетители! По тех. причинам регистрация отключена!

Видео Т/П «Субботник» - 2010 - [С ведущей Анной Ковальчук]

admin

Супер активный
Команда форума
Сообщения
402
Симпатии
7
Баллы
34
#1

Название: Т/П «Субботник» - 2010 - Андрей Ургант - 14.08.2010
Дата выхода: 14.08.2010
Страна: Россия, ВГТРК Россия - 1
Жанр: Интервью
Передачу ведет: А́нна Леони́довна Ковальчу́к - Российская актриса театра и кино, заслуженная артистка Российской Федерации (2008)
Хозяин субботника: Андре́й Льво́вич У́ргант - Советский и российский актёр театра и кино, телеведущий, шоумен.

О программе: Каждую субботу у всех зрителей есть замечательная возможность побывать в гостях у своего кумира. Ведущая Анна Ковальчук расскажет и покажет, как живут звезды вне сцены и съемочной площадки.
General
Complete name :ТП Субботник - 2010 - Андрей Ургант - 14.08.2010.avi
Format : AVI
Format/Info : Audio Video Interleave
File size : 306 MiB
Duration : 29 min
Overall bit rate : 1 439 kb/s

Video
ID : 0
Format : MPEG-4 Visual
Format profile : Advanced Simple@L5
Format settings, BVOP : 2
Format settings, QPel : No
Format settings, GMC : No warppoints
Format settings, Matrix : Default (H.263)
Codec ID : XVID
Codec ID/Hint : XviD
Duration : 29 min
Bit rate : 1 297 kb/s
Width : 720 pixels
Height : 480 pixels
Display aspect ratio : 3:2
Frame rate : 29.970 (29970/1000) FPS
Standard : NTSC
Color space : YUV
Chroma subsampling : 4:2:0
Bit depth : 8 bits
Scan type : Progressive
Compression mode : Lossy
Bits/(Pixel*Frame) : 0.125
Stream size : 276 MiB (90%)
Writing library : XviD 1.2.1 (UTC 2008-12-04)

Audio
ID : 1
Format : MPEG Audio
Format version : Version 1
Format profile : Layer 3
Codec ID : 55
Codec ID/Hint : MP3
Duration : 29 min
Source duration : 29 min
Bit rate mode : Constant
Bit rate : 128 kb/s
Channel(s) : 2 channels
Sampling rate : 48.0 kHz
Compression mode : Lossy
Stream size : 27.2 MiB (9%)
Alignment : Split accross interleaves
Interleave, duration : 24 ms (0.72 video frame)
Для просмотра содержимого вам необходимо авторизоваться.
 
Последнее редактирование:

admin

Супер активный
Команда форума
Сообщения
402
Симпатии
7
Баллы
34
#2

Название: Т/П «Субботник» - 2010 - Татьяна Буланова - 21.08.2010
Дата выхода: 21.08.2010
Страна: Россия, ВГТРК Россия - 1
Жанр: Интервью
Передачу ведет: А́нна Леони́довна Ковальчу́к - Российская актриса театра и кино, заслуженная артистка Российской Федерации (2008)
Хозяин субботника: Татья́на Ива́новна Була́нова - Российская эстрадная певица и актриса, заслуженная артистка России (2004)[1]. Двукратная обладательница Национальной российской премии «Овация».

О программе: Каждую субботу у всех зрителей есть замечательная возможность побывать в гостях у своего кумира. Ведущая Анна Ковальчук расскажет и покажет, как живут звезды вне сцены и съемочной площадки.
General
Complete name : ТП Субботник - 2010 - Татьяна Буланова - 21.08.2010.avi
Format : AVI
Format/Info : Audio Video Interleave
File size : 298 MiB
Duration : 29 min
Overall bit rate mode : Variable
Overall bit rate : 1 419 kb/s

Video
ID : 0
Format : MPEG-4 Visual
Format profile : Advanced Simple@L5
Format settings, BVOP : 2
Format settings, QPel : No
Format settings, GMC : No warppoints
Format settings, Matrix : Default (H.263)
Codec ID : XVID
Codec ID/Hint : XviD
Duration : 29 min
Bit rate : 1 280 kb/s
Width : 696 pixels
Height : 472 pixels
Display aspect ratio : 3:2
Frame rate : 29.970 (29970/1000) FPS
Color space : YUV
Chroma subsampling : 4:2:0
Bit depth : 8 bits
Scan type : Progressive
Compression mode : Lossy
Bits/(Pixel*Frame) : 0.130
Stream size : 269 MiB (90%)
Writing library : XviD 1.2.1 (UTC 2008-12-04)

Audio
ID : 1
Format : MPEG Audio
Format version : Version 1
Format profile : Layer 3
Codec ID : 55
Codec ID/Hint : MP3
Duration : 29 min
Source duration : 29 min
Bit rate mode : Variable
Bit rate : 128 kb/s
Channel(s) : 2 channels
Sampling rate : 48.0 kHz
Compression mode : Lossy
Stream size : 26.9 MiB (9%)
Alignment : Aligned on interleaves
Interleave, duration : 33 ms (1.00 video frame)
Для просмотра содержимого вам необходимо авторизоваться.
 
Последнее редактирование:

admin

Супер активный
Команда форума
Сообщения
402
Симпатии
7
Баллы
34
#3

Название: Т/П «Субботник» - 2010 - Евгений Дятлов - 28.08.2010
Дата выхода: 28.08.2010
Страна: Россия, ВГТРК Россия - 1
Жанр: Интервью
Передачу ведет: А́нна Леони́довна Ковальчу́к - Российская актриса театра и кино, заслуженная артистка Российской Федерации (2008)
Хозяин субботника: Евге́ний Вале́рьевич Дя́тлов - Российский актёр, певец, музыкант, заслуженный артист России (2007).

О программе: Каждую субботу у всех зрителей есть замечательная возможность побывать в гостях у своего кумира. Ведущая Анна Ковальчук расскажет и покажет, как живут звезды вне сцены и съемочной площадки.
General
Complete name : ТП Субботник - 2010 - Евгений Дятлов - 28.08.2010.avi
Format : AVI
Format/Info : Audio Video Interleave
File size : 309 MiB
Duration : 29 min
Overall bit rate : 1 442 kb/s

Video
ID : 0
Format : MPEG-4 Visual
Format profile : Advanced Simple@L5
Format settings, BVOP : 2
Format settings, QPel : No
Format settings, GMC : No warppoints
Format settings, Matrix : Default (H.263)
Codec ID : XVID
Codec ID/Hint : XviD
Duration : 29 min
Bit rate : 1 300 kb/s
Width : 720 pixels
Height : 480 pixels
Display aspect ratio : 3:2
Frame rate : 29.970 (29970/1000) FPS
Standard : NTSC
Color space : YUV
Chroma subsampling : 4:2:0
Bit depth : 8 bits
Scan type : Progressive
Compression mode : Lossy
Bits/(Pixel*Frame) : 0.126
Stream size : 279 MiB (90%)
Writing library : XviD 1.2.1 (UTC 2008-12-04)

Audio
ID : 1
Format : MPEG Audio
Format version : Version 1
Format profile : Layer 3
Codec ID : 55
Codec ID/Hint : MP3
Duration : 29 min
Source duration : 29 min
Bit rate mode : Constant
Bit rate : 128 kb/s
Channel(s) : 2 channels
Sampling rate : 48.0 kHz
Compression mode : Lossy
Stream size : 27.4 MiB (9%)
Alignment : Split accross interleaves
Interleave, duration : 24 ms (0.72 video frame)
Для просмотра содержимого вам необходимо авторизоваться.
 
Последнее редактирование:

admin

Супер активный
Команда форума
Сообщения
402
Симпатии
7
Баллы
34
#4

Название: Т/П «Субботник» - 2010 - Михаил Боярский - 11.09.2010
Дата выхода: 11.09.2010
Страна: Россия, ВГТРК Россия - 1
Жанр: Интервью
Передачу ведет: А́нна Леони́довна Ковальчу́к - Российская актриса театра и кино, заслуженная артистка Российской Федерации (2008)
Хозяин субботника: Михаи́л Серге́евич Боя́рский - Советский и российский актёр театра и кино, певец, телеведущий, заслуженный артист РСФСР (1984 год), народный артист РСФСР (1990 год). С 1988 года[1] по 2007 год — художественный руководитель созданного им театра «Бенефис» в Санкт-Петербурге.

О программе: Каждую субботу у всех зрителей есть замечательная возможность побывать в гостях у своего кумира. Ведущая Анна Ковальчук расскажет и покажет, как живут звезды вне сцены и съемочной площадки.
General
Complete name : ТП Субботник - 2010 - Михаил Боярский - 11.09.2010.wmv
Format : Windows Media
File size : 130 MiB
Duration : 30 min
Overall bit rate mode : Variable
Overall bit rate : 600 kb/s
Maximum Overall bit rate : 1 529 kb/s
Encoded date : UTC 2010-09-11 21:49:46.156

Video
ID : 2
Format : VC-1
Format profile : MP@ML
Codec ID : WMV3
Codec ID/Info : Windows Media Video 9
Codec ID/Hint : WMV3
Description of the codec : Windows Media Video 9
Duration : 30 min
Bit rate mode : Variable
Bit rate : 571 kb/s
Width : 720 pixels
Height : 576 pixels
Display aspect ratio : 5:4
Frame rate : 25.000 FPS
Standard : PAL
Color space : YUV
Chroma subsampling : 4:2:0
Bit depth : 8 bits
Scan type : Progressive
Compression mode : Lossy
Bits/(Pixel*Frame) : 0.055
Stream size : 124 MiB (95%)
Language : English (US)

Audio
ID : 1
Format : WMA
Format version : Version 2
Codec ID : 161
Codec ID/Info : Windows Media Audio
Description of the codec : Windows Media Audio 9.2 - 20 kbps, 44 kHz, mono 1-pass CBR
Duration : 30 min
Bit rate mode : Constant
Bit rate : 20.0 kb/s
Channel(s) : 1 channel
Sampling rate : 44.1 kHz
Bit depth : 16 bits
Stream size : 4.33 MiB (3%)
Language : English (US)
Для просмотра содержимого вам необходимо авторизоваться.
 
Последнее редактирование:

admin

Супер активный
Команда форума
Сообщения
402
Симпатии
7
Баллы
34
#5

Название: Т/П «Субботник» - 2010 - Андрей Носков - 18.09.2010
Дата выхода: 18.09.2010
Страна: Россия, ВГТРК Россия - 1
Жанр: Интервью
Передачу ведет: А́нна Леони́довна Ковальчу́к - Российская актриса театра и кино, заслуженная артистка Российской Федерации (2008)
Хозяин субботника: Андре́й Анато́льевич Носко́в - Российский актёр театра и кино.

О программе: Каждую субботу у всех зрителей есть замечательная возможность побывать в гостях у своего кумира. Ведущая Анна Ковальчук расскажет и покажет, как живут звезды вне сцены и съемочной площадки.
General
Complete name : ТП Субботник - 2010 - Андрей Носков - 18.09.2010.wmv
Format : Windows Media
File size : 129 MiB
Duration : 29 min
Overall bit rate mode : Variable
Overall bit rate : 600 kb/s
Maximum Overall bit rate : 1 529 kb/s
Encoded date : UTC 2010-09-18 20:37:57.859

Video
ID : 2
Format : VC-1
Format profile : MP@ML
Codec ID : WMV3
Codec ID/Info : Windows Media Video 9
Codec ID/Hint : WMV3
Description of the codec : Windows Media Video 9
Duration : 29 min
Bit rate mode : Variable
Bit rate : 571 kb/s
Width : 720 pixels
Height : 576 pixels
Display aspect ratio : 5:4
Frame rate : 25.000 FPS
Standard : PAL
Color space : YUV
Chroma subsampling : 4:2:0
Bit depth : 8 bits
Scan type : Progressive
Compression mode : Lossy
Bits/(Pixel*Frame) : 0.055
Stream size : 122 MiB (95%)
Language : English (US)

Audio
ID : 1
Format : WMA
Format version : Version 2
Codec ID : 161
Codec ID/Info : Windows Media Audio
Description of the codec : Windows Media Audio 9.2 - 20 kbps, 44 kHz, mono 1-pass CBR
Duration : 29 min
Bit rate mode : Constant
Bit rate : 20.0 kb/s
Channel(s) : 1 channel
Sampling rate : 44.1 kHz
Bit depth : 16 bits
Stream size : 4.29 MiB (3%)
Language : English (US)
Для просмотра содержимого вам необходимо авторизоваться.
 
Последнее редактирование:

admin

Супер активный
Команда форума
Сообщения
402
Симпатии
7
Баллы
34
#6

Название: Т/П «Субботник» - 2010 - Максим Леонидов - 25.09.2010
Дата выхода: 25.09.2010
Страна: Россия, ВГТРК Россия - 1
Жанр: Интервью
Передачу ведет: А́нна Леони́довна Ковальчу́к - Российская актриса театра и кино, заслуженная артистка Российской Федерации (2008)
Хозяин субботника: Максим Леонидович Леонидов - Российский музыкант, певец, актёр, поэт и телеведущий. Один из основателей бит-квартета Секрет.

О программе: Каждую субботу у всех зрителей есть замечательная возможность побывать в гостях у своего кумира. Ведущая Анна Ковальчук расскажет и покажет, как живут звезды вне сцены и съемочной площадки.
General
Complete name :ТП Субботник - 2010 - Максим Леонидов - 25.09.2010.avi
Format : AVI
Format/Info : Audio Video Interleave
File size : 302 MiB
Duration : 29 min
Overall bit rate : 1 420 kb/s

Video
ID : 0
Format : MPEG-4 Visual
Format profile : Advanced Simple@L5
Format settings, BVOP : 2
Format settings, QPel : No
Format settings, GMC : No warppoints
Format settings, Matrix : Default (H.263)
Codec ID : XVID
Codec ID/Hint : XviD
Duration : 29 min
Bit rate : 1 299 kb/s
Width : 704 pixels
Height : 528 pixels
Display aspect ratio : 4:3
Frame rate : 25.000 FPS
Color space : YUV
Chroma subsampling : 4:2:0
Bit depth : 8 bits
Scan type : Progressive
Compression mode : Lossy
Bits/(Pixel*Frame) : 0.140
Stream size : 276 MiB (91%)
Writing library : XviD 1.2.1 (UTC 2008-12-04)

Audio
ID : 1
Format : MPEG Audio
Format version : Version 1
Format profile : Layer 2
Mode extension : Intensity Stereo + MS Stereo
Codec ID : 50
Duration : 29 min
Source duration : 29 min
Bit rate mode : Constant
Bit rate : 112 kb/s
Channel(s) : 1 channel
Sampling rate : 48.0 kHz
Compression mode : Lossy
Stream size : 23.8 MiB (8%)
Alignment : Aligned on interleaves
Interleave, duration : 40 ms (1.00 video frame)
Для просмотра содержимого вам необходимо авторизоваться.
 
Последнее редактирование:

admin

Супер активный
Команда форума
Сообщения
402
Симпатии
7
Баллы
34
#7

Название: Т/П «Субботник» - 2010 - Борис Смолкин - 2.10.2010
Дата выхода: 2.10.2010
Страна: Россия, ВГТРК Россия - 1
Жанр: Интервью
Передачу ведет: А́нна Леони́довна Ковальчу́к - Российская актриса театра и кино, заслуженная артистка Российской Федерации (2008)
Хозяин субботника: Бори́с Григо́рьевич Смо́лкин - Советский и российский актёр, заслуженный артист Российской Федерации (1999)

О программе: Каждую субботу у всех зрителей есть замечательная возможность побывать в гостях у своего кумира. Ведущая Анна Ковальчук расскажет и покажет, как живут звезды вне сцены и съемочной площадки.
General
Complete name : ТП Субботник - 2010 - Борис Смолкин - 2.10.2010.avi
Format : AVI
Format/Info : Audio Video Interleave
File size : 310 MiB
Duration : 30 min
Overall bit rate : 1 419 kb/s

Video
ID : 0
Format : MPEG-4 Visual
Format profile : Advanced Simple@L5
Format settings, BVOP : 2
Format settings, QPel : No
Format settings, GMC : No warppoints
Format settings, Matrix : Default (H.263)
Codec ID : XVID
Codec ID/Hint : XviD
Duration : 30 min
Bit rate : 1 298 kb/s
Width : 704 pixels
Height : 528 pixels
Display aspect ratio : 4:3
Frame rate : 25.000 FPS
Color space : YUV
Chroma subsampling : 4:2:0
Bit depth : 8 bits
Scan type : Progressive
Compression mode : Lossy
Bits/(Pixel*Frame) : 0.140
Stream size : 283 MiB (91%)
Writing library : XviD 1.2.1 (UTC 2008-12-04)

Audio
ID : 1
Format : MPEG Audio
Format version : Version 1
Format profile : Layer 2
Mode extension : Intensity Stereo + MS Stereo
Codec ID : 50
Duration : 30 min
Source duration : 30 min
Bit rate mode : Constant
Bit rate : 112 kb/s
Channel(s) : 1 channel
Sampling rate : 48.0 kHz
Compression mode : Lossy
Stream size : 24.4 MiB (8%)
Alignment : Aligned on interleaves
Interleave, duration : 40 ms (1.00 video frame)
Для просмотра содержимого вам необходимо авторизоваться.
 
Последнее редактирование:

admin

Супер активный
Команда форума
Сообщения
402
Симпатии
7
Баллы
34
#8

Название: Т/П «Субботник» 2010 - Анастасия Мельникова - 9.10.2010
Дата выхода: 9.10.2010
Страна: Россия, ВГТРК Россия - 1
Жанр: Интервью
Передачу ведет: А́нна Леони́довна Ковальчу́к - Российская актриса театра и кино, заслуженная артистка Российской Федерации (2008)
Хозяин субботника: Анастаси́я Рю́риковна Ме́льникова - Российская актриса театра и кино, телеведущая. Заслуженная артистка России (2006), депутат Законодательного Собрания Санкт-Петербурга пятого созыва.

О программе: Каждую субботу у всех зрителей есть замечательная возможность побывать в гостях у своего кумира. Ведущая Анна Ковальчук расскажет и покажет, как живут звезды вне сцены и съемочной площадки.
General
Complete name : ТП Субботник - 2010 - Анастасия Мельникова - 9.10.2010.avi
Format : AVI
Format/Info : Audio Video Interleave
File size : 279 MiB
Duration : 29 min
Overall bit rate : 1 299 kb/s

Video
ID : 0
Format : MPEG-4 Visual
Format profile : Simple@L1
Format settings, BVOP : No
Format settings, QPel : No
Format settings, GMC : No warppoints
Format settings, Matrix : Default (H.263)
Codec ID : DX50
Codec ID/Hint : DivX 5
Duration : 29 min
Bit rate : 1 161 kb/s
Width : 576 pixels
Height : 432 pixels
Display aspect ratio : 4:3
Frame rate : 25.000 FPS
Color space : YUV
Chroma subsampling : 4:2:0
Bit depth : 8 bits
Scan type : Interlaced
Scan order : Top Field First
Compression mode : Lossy
Bits/(Pixel*Frame) : 0.187
Stream size : 249 MiB (89%)
Writing library : Lavc52.30.1

Audio
ID : 1
Format : MPEG Audio
Format version : Version 1
Format profile : Layer 3
Mode : Joint stereo
Mode extension : MS Stereo
Codec ID : 55
Codec ID/Hint : MP3
Duration : 29 min
Source duration : 29 min
Bit rate mode : Constant
Bit rate : 128 kb/s
Channel(s) : 2 channels
Sampling rate : 44.1 kHz
Compression mode : Lossy
Stream size : 27.5 MiB (10%)
Alignment : Aligned on interleaves
Interleave, duration : 40 ms (1.00 video frame)
Writing library : LAME3.98.2ЄЄЄЄЄЄЄЄЄЄ
Для просмотра содержимого вам необходимо авторизоваться.
 
Последнее редактирование:

admin

Супер активный
Команда форума
Сообщения
402
Симпатии
7
Баллы
34
#9

Название: Т/П «Субботник» 2010 - Галина Бокашевская - 16.10.2010
Дата выхода: 16.10.2010
Страна: Россия, ВГТРК Россия - 1
Жанр: Интервью
Передачу ведет: А́нна Леони́довна Ковальчу́к - Российская актриса театра и кино, заслуженная артистка Российской Федерации (2008)
Хозяин субботника: Гали́на Анато́льевна Бокаше́вская - Российская актриса театра и кино. Заслуженная артистка России (2006).

О программе: Каждую субботу у всех зрителей есть замечательная возможность побывать в гостях у своего кумира. Ведущая Анна Ковальчук расскажет и покажет, как живут звезды вне сцены и съемочной площадки.
General
Complete name : ТП Субботник - 2010 - Галина Бокашевская - 16.10.2010.avi
Format : AVI
Format/Info : Audio Video Interleave
File size : 270 MiB
Duration : 30 min
Overall bit rate mode : Variable
Overall bit rate : 1 254 kb/s

Video
ID : 0
Format : MPEG-4 Visual
Format profile : Simple@L1
Format settings, BVOP : No
Format settings, QPel : No
Format settings, GMC : No warppoints
Format settings, Matrix : Default (H.263)
Codec ID : DX50
Codec ID/Hint : DivX 5
Duration : 30 min
Bit rate : 1 116 kb/s
Width : 576 pixels
Height : 432 pixels
Display aspect ratio : 4:3
Frame rate : 25.000 FPS
Color space : YUV
Chroma subsampling : 4:2:0
Bit depth : 8 bits
Scan type : Interlaced
Scan order : Top Field First
Compression mode : Lossy
Bits/(Pixel*Frame) : 0.179
Stream size : 240 MiB (89%)
Writing library : Lavc52.30.1

Audio
ID : 1
Format : MPEG Audio
Format version : Version 1
Format profile : Layer 3
Mode : Joint stereo
Mode extension : MS Stereo
Codec ID : 55
Codec ID/Hint : MP3
Duration : 30 min
Source duration : 30 min
Bit rate mode : Variable
Bit rate : 128 kb/s
Channel(s) : 2 channels
Sampling rate : 44.1 kHz
Compression mode : Lossy
Stream size : 27.6 MiB (10%)
Alignment : Aligned on interleaves
Interleave, duration : 40 ms (1.00 video frame)
Writing library : LAME3.98.2ЄЄЄЄЄЄЄЄЄЄ
Для просмотра содержимого вам необходимо авторизоваться.
 
Последнее редактирование:

admin

Супер активный
Команда форума
Сообщения
402
Симпатии
7
Баллы
34
#10

Название: Т/П «Субботник» 2010 - Илья Олейник - 23.10.2010
Дата выхода: 23.10.2010
Страна: Россия, ВГТРК Россия - 1
Жанр: Интервью
Передачу ведет: А́нна Леони́довна Ковальчу́к - Российская актриса театра и кино, заслуженная артистка Российской Федерации (2008)
Хозяин субботника: Илья́ Льво́вич Оле́йников - Советский и российский эстрадный актёр комического жанра и телеведущий, лауреат «ТЭФИ» (1996), Народный артист Российской Федерации (2001).

О программе: Каждую субботу у всех зрителей есть замечательная возможность побывать в гостях у своего кумира. Ведущая Анна Ковальчук расскажет и покажет, как живут звезды вне сцены и съемочной площадки.
General
Complete name : ТП Субботник - 2010 - Илья Олейник - 23.10.2010.wmv
Format : Windows Media
File size : 130 MiB
Duration : 30 min
Overall bit rate mode : Variable
Overall bit rate : 600 kb/s
Maximum Overall bit rate : 1 529 kb/s
Encoded date : UTC 2010-10-23 15:04:37.734

Video
ID : 2
Format : VC-1
Format profile : MP@ML
Codec ID : WMV3
Codec ID/Info : Windows Media Video 9
Codec ID/Hint : WMV3
Description of the codec : Windows Media Video 9
Duration : 30 min
Bit rate mode : Variable
Bit rate : 571 kb/s
Width : 720 pixels
Height : 576 pixels
Display aspect ratio : 5:4
Frame rate : 25.000 FPS
Standard : PAL
Color space : YUV
Chroma subsampling : 4:2:0
Bit depth : 8 bits
Scan type : Progressive
Compression mode : Lossy
Bits/(Pixel*Frame) : 0.055
Stream size : 124 MiB (95%)
Language : English (US)

Audio
ID : 1
Format : WMA
Format version : Version 2
Codec ID : 161
Codec ID/Info : Windows Media Audio
Description of the codec : Windows Media Audio 9.2 - 20 kbps, 44 kHz, mono 1-pass CBR
Duration : 30 min
Bit rate mode : Constant
Bit rate : 20.0 kb/s
Channel(s) : 1 channel
Sampling rate : 44.1 kHz
Bit depth : 16 bits
Stream size : 4.34 MiB (3%)
Language : English (US)
Для просмотра содержимого вам необходимо авторизоваться.
 
Последнее редактирование:

admin

Супер активный
Команда форума
Сообщения
402
Симпатии
7
Баллы
34
#11

Название:Т/П «Субботник» 2010 - Алла Довлатова - 30.10.2010
Дата выхода: 30.10.2010
Страна: Россия, ВГТРК Россия - 1
Жанр: Интервью
Передачу ведет: А́нна Леони́довна Ковальчу́к - Российская актриса театра и кино, заслуженная артистка Российской Федерации (2008)
Хозяин субботника: А́лла Алекса́ндровна Довла́това - Наст. имя Марина Александровна Евстрахина — российская радио- и телеведущая, актриса.

О программе: Каждую субботу у всех зрителей есть замечательная возможность побывать в гостях у своего кумира. Ведущая Анна Ковальчук расскажет и покажет, как живут звезды вне сцены и съемочной площадки.
General
Complete name : ТП Субботник - 2010 - Алла Довлатова - 30.10.2010.wmv
Format : Windows Media
File size : 131 MiB
Duration : 30 min
Overall bit rate mode : Variable
Overall bit rate : 600 kb/s
Maximum Overall bit rate : 1 529 kb/s
Encoded date : UTC 2010-10-30 12:30:06.620

Video
ID : 2
Format : VC-1
Format profile : MP@ML
Codec ID : WMV3
Codec ID/Info : Windows Media Video 9
Codec ID/Hint : WMV3
Description of the codec : Windows Media Video 9
Duration : 30 min
Bit rate mode : Variable
Bit rate : 571 kb/s
Width : 720 pixels
Height : 576 pixels
Display aspect ratio : 5:4
Frame rate : 25.000 FPS
Standard : PAL
Color space : YUV
Chroma subsampling : 4:2:0
Bit depth : 8 bits
Scan type : Progressive
Compression mode : Lossy
Bits/(Pixel*Frame) : 0.055
Stream size : 124 MiB (95%)
Language : English (US)

Audio
ID : 1
Format : WMA
Format version : Version 2
Codec ID : 161
Codec ID/Info : Windows Media Audio
Description of the codec : Windows Media Audio 9.2 - 20 kbps, 44 kHz, mono 1-pass CBR
Duration : 30 min
Bit rate mode : Constant
Bit rate : 20.0 kb/s
Channel(s) : 1 channel
Sampling rate : 44.1 kHz
Bit depth : 16 bits
Stream size : 4.35 MiB (3%)
Language : English (US)
Для просмотра содержимого вам необходимо авторизоваться.
 
Последнее редактирование:

admin

Супер активный
Команда форума
Сообщения
402
Симпатии
7
Баллы
34
#12

Название: Т/П «Субботник» 2010 - Сергей Рост - 6.11.2010
Дата выхода: 6.11.2010
Страна: Россия, ВГТРК Россия - 1
Жанр: Интервью
Передачу ведет: А́нна Леони́довна Ковальчу́к - Российская актриса театра и кино, заслуженная артистка Российской Федерации (2008)
Хозяин субботника: Серге́й Рост - Настоящее имя — Серге́й Анато́льевич Титивин — российский актёр, сценарист, теле- и радиоведущий.

О программе: Каждую субботу у всех зрителей есть замечательная возможность побывать в гостях у своего кумира. Ведущая Анна Ковальчук расскажет и покажет, как живут звезды вне сцены и съемочной площадки.
General
Complete name : ТП Субботник - 2010 - Сергей Рост - 6.11.2010.wmv
Format : Windows Media
File size : 127 MiB
Duration : 29 min
Overall bit rate mode : Variable
Overall bit rate : 600 kb/s
Maximum Overall bit rate : 1 529 kb/s
Encoded date : UTC 2010-11-06 12:13:27.359

Video
ID : 2
Format : VC-1
Format profile : MP@ML
Codec ID : WMV3
Codec ID/Info : Windows Media Video 9
Codec ID/Hint : WMV3
Description of the codec : Windows Media Video 9
Duration : 29 min
Bit rate mode : Variable
Bit rate : 571 kb/s
Width : 720 pixels
Height : 576 pixels
Display aspect ratio : 5:4
Frame rate : 25.000 FPS
Standard : PAL
Color space : YUV
Chroma subsampling : 4:2:0
Bit depth : 8 bits
Scan type : Progressive
Compression mode : Lossy
Bits/(Pixel*Frame) : 0.055
Stream size : 120 MiB (95%)
Language : English (US)

Audio
ID : 1
Format : WMA
Format version : Version 2
Codec ID : 161
Codec ID/Info : Windows Media Audio
Description of the codec : Windows Media Audio 9.2 - 20 kbps, 44 kHz, mono 1-pass CBR
Duration : 29 min
Bit rate mode : Constant
Bit rate : 20.0 kb/s
Channel(s) : 1 channel
Sampling rate : 44.1 kHz
Bit depth : 16 bits
Stream size : 4.22 MiB (3%)
Language : English (US)
Для просмотра содержимого вам необходимо авторизоваться.
 
Последнее редактирование:

admin

Супер активный
Команда форума
Сообщения
402
Симпатии
7
Баллы
34
#13

Название: Т/П «Субботник» 2010 - Игорь Корнелюк - 20.11.2010
Дата выхода: 20.11.2010
Страна: Россия, ВГТРК Россия - 1
Жанр: Интервью
Передачу ведет: А́нна Леони́довна Ковальчу́к - Российская актриса театра и кино, заслуженная артистка Российской Федерации (2008)
Хозяин субботника: И́горь Евге́ньевич Корнелю́к - Белор. Ігар Яўгенавіч Карнялюк — советский и российский музыкант и композитор, певец, Заслуженный деятель искусств Российской Федерации (2007).

О программе: Каждую субботу у всех зрителей есть замечательная возможность побывать в гостях у своего кумира. Ведущая Анна Ковальчук расскажет и покажет, как живут звезды вне сцены и съемочной площадки.
General
Complete name : ТП Субботник - 2010 - Игорь Корнелюк - 20.11.2010.wmv
Format : Windows Media
File size : 131 MiB
Duration : 30 min
Overall bit rate mode : Variable
Overall bit rate : 600 kb/s
Maximum Overall bit rate : 1 529 kb/s
Encoded date : UTC 2010-11-21 03:33:20.203

Video
ID : 2
Format : VC-1
Format profile : MP@ML
Codec ID : WMV3
Codec ID/Info : Windows Media Video 9
Codec ID/Hint : WMV3
Description of the codec : Windows Media Video 9
Duration : 30 min
Bit rate mode : Variable
Bit rate : 571 kb/s
Width : 720 pixels
Height : 576 pixels
Display aspect ratio : 5:4
Frame rate : 25.000 FPS
Standard : PAL
Color space : YUV
Chroma subsampling : 4:2:0
Bit depth : 8 bits
Scan type : Progressive
Compression mode : Lossy
Bits/(Pixel*Frame) : 0.055
Stream size : 124 MiB (95%)
Language : English (US)

Audio
ID : 1
Format : WMA
Format version : Version 2
Codec ID : 161
Codec ID/Info : Windows Media Audio
Description of the codec : Windows Media Audio 9.2 - 20 kbps, 44 kHz, mono 1-pass CBR
Duration : 30 min
Bit rate mode : Constant
Bit rate : 20.0 kb/s
Channel(s) : 1 channel
Sampling rate : 44.1 kHz
Bit depth : 16 bits
Stream size : 4.36 MiB (3%)
Language : English (US)
Для просмотра содержимого вам необходимо авторизоваться.
 
Последнее редактирование:

admin

Супер активный
Команда форума
Сообщения
402
Симпатии
7
Баллы
34
#14

Название: Т/П «Субботник» 2010 - Владимир Долинский - 27.11.2010
Дата выхода: 27.11.2010
Страна: Россия, ВГТРК Россия - 1
Жанр: Интервью
Передачу ведет: А́нна Леони́довна Ковальчу́к - Российская актриса театра и кино, заслуженная артистка Российской Федерации (2008)
Хозяин субботника: Влади́мир Абра́мович Доли́нский - Советский и российский актёр, телеведущий. Заслуженный артист России (1994).

О программе: Каждую субботу у всех зрителей есть замечательная возможность побывать в гостях у своего кумира. Ведущая Анна Ковальчук расскажет и покажет, как живут звезды вне сцены и съемочной площадки.
General
Complete name : ТП Субботник - 2010 - Владимир Долинский - 27.11.2010.mp4
Format : MPEG-4
Format profile : Base Media
Codec ID : isom (isom/iso2/avc1/mp41)
File size : 227 MiB
Duration : 29 min
Overall bit rate mode : Variable
Overall bit rate : 1 066 kb/s
Encoded date : UTC 1970-01-01 00:00:00
Tagged date : UTC 1970-01-01 00:00:00
Writing application : Lavf50.4.0

Video
ID : 1
Format : AVC
Format/Info : Advanced Video Codec
Format profile : Main@L5.1
Format settings, CABAC : Yes
Format settings, ReFrames : 1 frame
Codec ID : avc1
Codec ID/Info : Advanced Video Coding
Duration : 29 min
Bit rate : 976 kb/s
Width : 720 pixels
Height : 576 pixels
Display aspect ratio : 5:4
Frame rate mode : Constant
Frame rate : 30.000 FPS
Color space : YUV
Chroma subsampling : 4:2:0
Bit depth : 8 bits
Scan type : Progressive
Bits/(Pixel*Frame) : 0.078
Stream size : 208 MiB (92%)
Encoded date : UTC 1970-01-01 00:00:00
Tagged date : UTC 1970-01-01 00:00:00

Audio
ID : 2
Format : AAC
Format/Info : Advanced Audio Codec
Format profile : LC
Codec ID : 40
Duration : 29 min
Bit rate mode : Variable
Bit rate : 85.1 kb/s
Channel(s) : 2 channels
Channel positions : Front: L R
Sampling rate : 44.1 kHz
Frame rate : 43.066 FPS (1024 spf)
Compression mode : Lossy
Stream size : 18.1 MiB (8%)
Encoded date : UTC 1970-01-01 00:00:00
Tagged date : UTC 1970-01-01 00:00:00
Для просмотра содержимого вам необходимо авторизоваться.
 
Последнее редактирование:

admin

Супер активный
Команда форума
Сообщения
402
Симпатии
7
Баллы
34
#15

Название: Т/П «Субботник» 2010 - Семен Альтов - 4.12.2010
Дата выхода: 4.12.2010
Страна: Россия, ВГТРК Россия - 1
Жанр: Интервью
Передачу ведет: А́нна Леони́довна Ковальчу́к - Российская актриса театра и кино, заслуженная артистка Российской Федерации (2008)
Хозяин субботника: Семён А́льтов - Настоящее имя Семён Теодо́рович Альтшуллер — советский и российский писатель-сатирик. Заслуженный деятель искусств Российской Федерации.

О программе: Каждую субботу у всех зрителей есть замечательная возможность побывать в гостях у своего кумира. Ведущая Анна Ковальчук расскажет и покажет, как живут звезды вне сцены и съемочной площадки.
General
Complete name : ТП Субботник - 2010 - Семен Альтов - 4.12.2010.wmv
Format : Windows Media
File size : 129 MiB
Duration : 29 min
Overall bit rate mode : Variable
Overall bit rate : 600 kb/s
Maximum Overall bit rate : 1 529 kb/s
Encoded date : UTC 2010-12-04 16:04:33.156

Video
ID : 2
Format : VC-1
Format profile : MP@ML
Codec ID : WMV3
Codec ID/Info : Windows Media Video 9
Codec ID/Hint : WMV3
Description of the codec : Windows Media Video 9
Duration : 29 min
Bit rate mode : Variable
Bit rate : 571 kb/s
Width : 720 pixels
Height : 576 pixels
Display aspect ratio : 5:4
Frame rate : 25.000 FPS
Standard : PAL
Color space : YUV
Chroma subsampling : 4:2:0
Bit depth : 8 bits
Scan type : Progressive
Compression mode : Lossy
Bits/(Pixel*Frame) : 0.055
Stream size : 122 MiB (95%)
Language : English (US)

Audio
ID : 1
Format : WMA
Format version : Version 2
Codec ID : 161
Codec ID/Info : Windows Media Audio
Description of the codec : Windows Media Audio 9.2 - 20 kbps, 44 kHz, mono 1-pass CBR
Duration : 29 min
Bit rate mode : Constant
Bit rate : 20.0 kb/s
Channel(s) : 1 channel
Sampling rate : 44.1 kHz
Bit depth : 16 bits
Stream size : 4.28 MiB (3%)
Language : English (US)
Для просмотра содержимого вам необходимо авторизоваться.
 
Последнее редактирование:

admin

Супер активный
Команда форума
Сообщения
402
Симпатии
7
Баллы
34
#16

Название: Т/П «Субботник» 2010 - Иракли Пирцхалава - 11.12.2010
Дата выхода: 11.12.2010
Страна: Россия, ВГТРК Россия - 1
Жанр: Интервью
Передачу ведет: А́нна Леони́довна Ковальчу́к - Российская актриса театра и кино, заслуженная артистка Российской Федерации (2008)
Хозяин субботника: Ира́клий Леони́дович Пирцхала́ва - Груз. ირაკლი ფირცხალავა, более известен как Иракли — российский певец и радиоведущий грузинского происхождения и участник Фабрики Звезд.

О программе: Каждую субботу у всех зрителей есть замечательная возможность побывать в гостях у своего кумира. Ведущая Анна Ковальчук расскажет и покажет, как живут звезды вне сцены и съемочной площадки.
General
Complete name : ТП Субботник - 2010 - Иракли Пирцхалава - 11.12.2010.wmv
Format : Windows Media
File size : 129 MiB
Duration : 30 min
Overall bit rate mode : Variable
Overall bit rate : 601 kb/s
Maximum Overall bit rate : 1 529 kb/s
Encoded date : UTC 2010-12-12 13:48:23.705

Video
ID : 2
Format : VC-1
Format profile : MP@ML
Codec ID : WMV3
Codec ID/Info : Windows Media Video 9
Codec ID/Hint : WMV3
Description of the codec : Windows Media Video 9
Duration : 30 min
Bit rate mode : Variable
Bit rate : 571 kb/s
Width : 720 pixels
Height : 576 pixels
Display aspect ratio : 5:4
Frame rate : 25.000 FPS
Standard : PAL
Color space : YUV
Chroma subsampling : 4:2:0
Bit depth : 8 bits
Scan type : Progressive
Compression mode : Lossy
Bits/(Pixel*Frame) : 0.055
Stream size : 123 MiB (95%)
Language : English (US)

Audio
ID : 1
Format : WMA
Format version : Version 2
Codec ID : 161
Codec ID/Info : Windows Media Audio
Description of the codec : Windows Media Audio 9.2 - 20 kbps, 44 kHz, mono 1-pass CBR
Duration : 30 min
Bit rate mode : Constant
Bit rate : 20.0 kb/s
Channel(s) : 1 channel
Sampling rate : 44.1 kHz
Bit depth : 16 bits
Stream size : 4.30 MiB (3%)
Language : English (US)
Для просмотра содержимого вам необходимо авторизоваться.
 
Последнее редактирование:

admin

Супер активный
Команда форума
Сообщения
402
Симпатии
7
Баллы
34
#17

Название: Т/П «Субботник» 2010 - Александр Розенбаум - 18.12.2010
Дата выхода: 18.12.2010
Страна: Россия, ВГТРК Россия - 1
Жанр: Интервью
Передачу ведет: А́нна Леони́довна Ковальчу́к - Российская актриса театра и кино, заслуженная артистка Российской Федерации (2008)
Хозяин субботника: Алекса́ндр Я́ковлевич Розенба́ум - Советский и российский автор-исполнитель, актёр и писатель, заслуженный артист РФ (1996), народный артист РФ (2001).

О программе: Каждую субботу у всех зрителей есть замечательная возможность побывать в гостях у своего кумира. Ведущая Анна Ковальчук расскажет и покажет, как живут звезды вне сцены и съемочной площадки.
General
Complete name : ТП Субботник - 2010 - Александр Розенбаум - 18.12.2010.wmv
Format : Windows Media
File size : 129 MiB
Duration : 30 min
Overall bit rate mode : Variable
Overall bit rate : 600 kb/s
Maximum Overall bit rate : 1 529 kb/s
Encoded date : UTC 2010-12-18 23:03:42.100

Video
ID : 2
Format : VC-1
Format profile : MP@ML
Codec ID : WMV3
Codec ID/Info : Windows Media Video 9
Codec ID/Hint : WMV3
Description of the codec : Windows Media Video 9
Duration : 30 min
Bit rate mode : Variable
Bit rate : 571 kb/s
Width : 720 pixels
Height : 576 pixels
Display aspect ratio : 5:4
Frame rate : 25.000 FPS
Standard : PAL
Color space : YUV
Chroma subsampling : 4:2:0
Bit depth : 8 bits
Scan type : Progressive
Compression mode : Lossy
Bits/(Pixel*Frame) : 0.055
Stream size : 123 MiB (95%)
Language : English (US)

Audio
ID : 1
Format : WMA
Format version : Version 2
Codec ID : 161
Codec ID/Info : Windows Media Audio
Description of the codec : Windows Media Audio 9.2 - 20 kbps, 44 kHz, mono 1-pass CBR
Duration : 30 min
Bit rate mode : Constant
Bit rate : 20.0 kb/s
Channel(s) : 1 channel
Sampling rate : 44.1 kHz
Bit depth : 16 bits
Stream size : 4.30 MiB (3%)
Language : English (US)
Для просмотра содержимого вам необходимо авторизоваться.
 
Последнее редактирование:

admin

Супер активный
Команда форума
Сообщения
402
Симпатии
7
Баллы
34
#18

Название: Т/П «Субботник» 2010 - Юрий Антонов - 25.12.2010
Дата выхода: 25.12.2010
Страна: Россия, ВГТРК Россия - 1
Жанр: Интервью
Передачу ведет: А́нна Леони́довна Ковальчу́к - Российская актриса театра и кино, заслуженная артистка Российской Федерации (2008)
Хозяин субботника: Ю́рий Миха́йлович Анто́нов - Советский и российский композитор, эстрадный певец и поэт. Народный артист Российской Федерации (1997).

О программе: Каждую субботу у всех зрителей есть замечательная возможность побывать в гостях у своего кумира. Ведущая Анна Ковальчук расскажет и покажет, как живут звезды вне сцены и съемочной площадки.
General
Complete name : ТП Субботник - 2010 - Юрий Антонов - 25.12.2010.wmv
Format : Windows Media
File size : 130 MiB
Duration : 30 min
Overall bit rate mode : Variable
Overall bit rate : 601 kb/s
Maximum Overall bit rate : 1 529 kb/s
Encoded date : UTC 2010-12-26 02:36:11.648

Video
ID : 2
Format : VC-1
Format profile : MP@ML
Codec ID : WMV3
Codec ID/Info : Windows Media Video 9
Codec ID/Hint : WMV3
Description of the codec : Windows Media Video 9
Duration : 30 min
Bit rate mode : Variable
Bit rate : 571 kb/s
Width : 720 pixels
Height : 576 pixels
Display aspect ratio : 5:4
Frame rate : 25.000 FPS
Standard : PAL
Color space : YUV
Chroma subsampling : 4:2:0
Bit depth : 8 bits
Scan type : Progressive
Compression mode : Lossy
Bits/(Pixel*Frame) : 0.055
Stream size : 123 MiB (95%)
Language : English (US)

Audio
ID : 1
Format : WMA
Format version : Version 2
Codec ID : 161
Codec ID/Info : Windows Media Audio
Description of the codec : Windows Media Audio 9.2 - 20 kbps, 44 kHz, mono 1-pass CBR
Duration : 30 min
Bit rate mode : Constant
Bit rate : 20.0 kb/s
Channel(s) : 1 channel
Sampling rate : 44.1 kHz
Bit depth : 16 bits
Stream size : 4.31 MiB (3%)
Language : English (US)
Для просмотра содержимого вам необходимо авторизоваться.
 
Последнее редактирование:
Вверх Снизу