• Уважаемые посетители! По тех. причинам регистрация отключена!

Видео Т/П «Субботник» - 2011 - [С ведущей Анной Ковальчук]

admin

Супер активный
Команда форума
Сообщения
402
Симпатии
7
Баллы
34
#21



Название: Т/П «Субботник» - 2011 - Дарья Донцова - 04.06.2011
Дата выхода: 04.06.2011
Страна: Россия, ВГТРК Россия - 1
Жанр: Интевью
Передачу ведет: А́нна Леони́довна Ковальчу́к - Российская актриса театра и кино, заслуженная артистка Российской Федерации (2008)
Хозяин субботника: Дарья Донцова (настоящее имя — Агриппина Аркадьевна Донцова, в девичестве Васильева) — российская писательница, сценаристка и телеведущая, автор «иронических детективов», член Союза писателей России. Лауреат ряда литературных премий.

О программе: Каждую субботу у всех зрителей есть замечательная возможность побывать в гостях у своего кумира. Ведущая Анна Ковальчук расскажет и покажет, как живут звезды вне сцены и съемочной площадки.
General
Complete name : ТП - Субботник - Дарья Донцова - 2011-06-4.wmv
Format : Windows Media
File size : 210 MiB
Duration : 30 min
Overall bit rate mode : Variable
Overall bit rate : 976 kb/s
Maximum Overall bit rate : 2 075 kb/s
Encoded date : UTC 2011-06-25 11:22:20.308

Video
ID : 2
Format : VC-1
Format profile : Main
Codec ID : WMV3
Codec ID/Info : Windows Media Video 9
Codec ID/Hint : WMV3
Duration : 30 min
Bit rate mode : Variable
Bit rate : 900 kb/s
Width : 720 pixels
Height : 576 pixels
Display aspect ratio : 5:4
Frame rate : 25.000 FPS
Standard : PAL
Color space : YUV
Chroma subsampling : 4:2:0
Bit depth : 8 bits
Scan type : Progressive
Compression mode : Lossy
Bits/(Pixel*Frame) : 0.087
Stream size : 193 MiB (92%)
Language : Russian

Audio
ID : 1
Format : WMA
Format version : Version 2
Codec ID : 161
Codec ID/Info : Windows Media Audio
Duration : 30 min
Bit rate mode : Constant
Bit rate : 64.0 kb/s
Channel(s) : 2 channels
Sampling rate : 44.1 kHz
Bit depth : 16 bits
Stream size : 13.8 MiB (7%)
Language : Russian

Other
Type : Time code
Format : WM TC
Time code of first frame : 00:00:00:00
Для просмотра содержимого вам необходимо авторизоваться.
 
Последнее редактирование:

admin

Супер активный
Команда форума
Сообщения
402
Симпатии
7
Баллы
34
#22



Название: Т/П «Субботник» - 2011 - Алика Смехова - 11.06.2011
Дата выхода: 11.06.2011
Страна: Россия, ВГТРК Россия - 1
Жанр: Интевью
Передачу ведет: А́нна Леони́довна Ковальчу́к - Российская актриса театра и кино, заслуженная артистка Российской Федерации (2008)
Хозяин субботника: А́лика Вениами́новна Сме́хова (настоящее имя — Алла) — советская и российская актриса, эстрадная певица, телеведущая. Заслуженная артистка России (2008)[1]. Наиболее популярные песни в её исполнении — «Не перебивай» (дуэт с Александром Буйновым) и «Чужой поцелуй».

О программе: Каждую субботу у всех зрителей есть замечательная возможность побывать в гостях у своего кумира. Ведущая Анна Ковальчук расскажет и покажет, как живут звезды вне сцены и съемочной площадки.
Нет информации!
Нет информации!
Если Вы располагаете данным материалом , то, пожалуйста, оставьте сообщение для администрации сайта. Будем очень признательны за помощь.
 
Последнее редактирование:

admin

Супер активный
Команда форума
Сообщения
402
Симпатии
7
Баллы
34
#23



Название: Т/П «Субботник» - 2011 - Юрий Куклачев - 18.06.2011
Дата выхода: 18.06.2011
Страна: Россия, ВГТРК Россия - 1
Жанр: Интевью
Передачу ведет: А́нна Леони́довна Ковальчу́к - Российская актриса театра и кино, заслуженная артистка Российской Федерации (2008)
Хозяин субботника: Юрий Дмитриевич Куклачёв — советский и российский артист клоунады. Народный артист РСФСР (1979).

О программе: Каждую субботу у всех зрителей есть замечательная возможность побывать в гостях у своего кумира. Ведущая Анна Ковальчук расскажет и покажет, как живут звезды вне сцены и съемочной площадки.
General
Complete name : ТП - Субботник - Юрий Куклачев - 2011-06-18.wmv
Format : Windows Media
File size : 207 MiB
Duration : 29 min
Overall bit rate mode : Variable
Overall bit rate : 978 kb/s
Maximum Overall bit rate : 2 075 kb/s
Encoded date : UTC 2011-06-25 17:39:55.508

Video
ID : 2
Format : VC-1
Format profile : Main
Codec ID : WMV3
Codec ID/Info : Windows Media Video 9
Codec ID/Hint : WMV3
Duration : 29 min
Bit rate mode : Variable
Bit rate : 900 kb/s
Width : 720 pixels
Height : 576 pixels
Display aspect ratio : 5:4
Frame rate : 25.000 FPS
Standard : PAL
Color space : YUV
Chroma subsampling : 4:2:0
Bit depth : 8 bits
Scan type : Progressive
Compression mode : Lossy
Bits/(Pixel*Frame) : 0.087
Stream size : 191 MiB (92%)
Language : Russian

Audio
ID : 1
Format : WMA
Format version : Version 2
Codec ID : 161
Codec ID/Info : Windows Media Audio
Duration : 29 min
Bit rate mode : Constant
Bit rate : 64.0 kb/s
Channel(s) : 2 channels
Sampling rate : 44.1 kHz
Bit depth : 16 bits
Stream size : 13.6 MiB (7%)
Language : Russian

Other
Type : Time code
Format : WM TC
Time code of first frame : 00:00:00:00
Для просмотра содержимого вам необходимо авторизоваться.
 
Последнее редактирование:

admin

Супер активный
Команда форума
Сообщения
402
Симпатии
7
Баллы
34
#24



Название: Т/П «Субботник» - 2011 - Лариса Лужина - 25.06.2011
Дата выхода: 25.06.2011
Страна: Россия, ВГТРК Россия - 1
Жанр: Интевью
Передачу ведет: А́нна Леони́довна Ковальчу́к - Российская актриса театра и кино, заслуженная артистка Российской Федерации (2008)
Хозяин субботника: Лариса Анатольевна Лужина — советская и российская киноактриса. Народная артистка РСФСР (1989).

О программе: Каждую субботу у всех зрителей есть замечательная возможность побывать в гостях у своего кумира. Ведущая Анна Ковальчук расскажет и покажет, как живут звезды вне сцены и съемочной площадки.
General
Complete name : ТП - Субботник - Лариса Лужина - 2011-06-25.wmv
Format : Windows Media
File size : 212 MiB
Duration : 30 min
Overall bit rate mode : Variable
Overall bit rate : 978 kb/s
Maximum Overall bit rate : 2 075 kb/s
Encoded date : UTC 2011-06-26 09:07:32.279

Video
ID : 2
Format : VC-1
Format profile : Main
Codec ID : WMV3
Codec ID/Info : Windows Media Video 9
Codec ID/Hint : WMV3
Duration : 30 min
Bit rate mode : Variable
Bit rate : 900 kb/s
Width : 720 pixels
Height : 576 pixels
Display aspect ratio : 5:4
Frame rate : 25.000 FPS
Standard : PAL
Color space : YUV
Chroma subsampling : 4:2:0
Bit depth : 8 bits
Scan type : Progressive
Compression mode : Lossy
Bits/(Pixel*Frame) : 0.087
Stream size : 195 MiB (92%)
Language : Russian

Audio
ID : 1
Format : WMA
Format version : Version 2
Codec ID : 161
Codec ID/Info : Windows Media Audio
Duration : 30 min
Bit rate mode : Constant
Bit rate : 64.0 kb/s
Channel(s) : 2 channels
Sampling rate : 44.1 kHz
Bit depth : 16 bits
Stream size : 13.9 MiB (7%)
Language : Russian

Other
Type : Time code
Format : WM TC
Time code of first frame : 00:00:00:00
Для просмотра содержимого вам необходимо авторизоваться.
 
Последнее редактирование:
Вверх Снизу