• Уважаемые посетители и пользователи! В настоящее время у Анны Ковальчук в инстаграм 56,8 тыс. подписчиков! Как вы уже заметили на нашем форуме есть публикации, защищенные паролем. За каждые 150 000 подписчиков в инстаграм Анны Ковальчук мы будем открывать по 2 запароленные темы. Какие именно выберем на голосовании. Т.е. для разблокировки 2-х тем на данный момент нужно чтобы у Анны в инстаграм было не 56,8 тыс. подписчиков, а 150 000! Подписываемся :)

Видео Т/П «Тайны сказок с Анной Ковальчук» [Спас тв, spastv.ru]

admin

Мега активный
Команда форума
Администратор
Сообщения
756
Баллы
114

Название: Т/П «Тайны сказок с Анной Ковальчук» [Спас тв, spastv.ru] [Анонс]
Жанр: анонс, реклама
Канал: Спас ТВ
Дата выхода: 10.08.2018

 

admin

Мега активный
Команда форума
Администратор
Сообщения
756
Баллы
114

Название: Т/П «Тайны сказок с Анной Ковальчук» - «Антошкин одуванчик» [Спас ТВ, 16.09.2018]
Жанр: сказка
Канал: Спас ТВ
Дата выхода: 16.09.2018
Продолжительность: 00:13:00
1. Антошкин одуванчик (автор: Ирина Рогалева) (Читает: Анна Ковальчук)
2. Притча «Сын» Книга: Мудрый ослик. Притчи для детей - автор Клюкина Ольга. (Читает: Анна Ковальчук)
General
Complete name : ТП «Тайны сказок с Анной Ковальчук» - «Антошкин одуванчик» [Спас ТВ, 16.09.2018].mp4
Format : MPEG-4
Format profile : Base Media
Codec ID : isom (isom/iso2/avc1/mp41)
File size : 235 MiB
Duration : 13 min
Overall bit rate : 2 522 kb/s
Writing application : Lavf57.2.100

Video
ID : 1
Format : AVC
Format/Info : Advanced Video Codec
Format profile : High@L4
Format settings, CABAC : Yes
Format settings, ReFrames : 3 frames
Codec ID : avc1
Codec ID/Info : Advanced Video Coding
Duration : 13 min
Bit rate : 2 391 kb/s
Width : 1 920 pixels
Height : 1 080 pixels
Display aspect ratio : 16:9
Frame rate mode : Constant
Frame rate : 25.000 FPS
Color space : YUV
Chroma subsampling : 4:2:0
Bit depth : 8 bits
Scan type : Progressive
Bits/(Pixel*Frame) : 0.046
Stream size : 222 MiB (95%)
Color range : Limited
Color primaries : BT.709
Transfer characteristics : BT.709
Matrix coefficients : BT.709

Audio
ID : 2
Format : AAC
Format/Info : Advanced Audio Codec
Format profile : LC
Codec ID : 40
Duration : 13 min
Bit rate mode : Constant
Bit rate : 126 kb/s
Channel(s) : 2 channels
Channel positions : Front: L R
Sampling rate : 44.1 kHz
Frame rate : 43.066 FPS (1024 spf)
Compression mode : Lossy
Stream size : 11.7 MiB (5%)
Default : Yes
Alternate group : 1
Скрытое содержимое могут видеть только пользователь группы: Member
 
Последнее редактирование:

admin

Мега активный
Команда форума
Администратор
Сообщения
756
Баллы
114

Название: Т/П «Тайны сказок с Анной Ковальчук» - «Как София в гости к лени ходила» [Спас ТВ, 16.09.2018]
Жанр: сказка
Канал: Спас ТВ
Дата выхода: 16.09.2018
Продолжительность: 00:13:00
1. Как София в гости к лени ходила (автор: Наталья Климова) (Читает: Анна Ковальчук)
General
Complete name : ТП «Тайны сказок с Анной Ковальчук» - «Как София в гости к лени ходила» [Спас ТВ, 16.09.2018].mp4
Format : MPEG-4
Format profile : Base Media
Codec ID : isom (isom/iso2/avc1/mp41)
File size : 251 MiB
Duration : 13 min
Overall bit rate : 2 699 kb/s
Writing application : Lavf57.2.100

Video
ID : 1
Format : AVC
Format/Info : Advanced Video Codec
Format profile : High@L4
Format settings, CABAC : Yes
Format settings, ReFrames : 3 frames
Codec ID : avc1
Codec ID/Info : Advanced Video Coding
Duration : 13 min
Bit rate : 2 568 kb/s
Width : 1 920 pixels
Height : 1 080 pixels
Display aspect ratio : 16:9
Frame rate mode : Constant
Frame rate : 25.000 FPS
Color space : YUV
Chroma subsampling : 4:2:0
Bit depth : 8 bits
Scan type : Progressive
Bits/(Pixel*Frame) : 0.050
Stream size : 239 MiB (95%)
Color range : Limited
Color primaries : BT.709
Transfer characteristics : BT.709
Matrix coefficients : BT.709

Audio
ID : 2
Format : AAC
Format/Info : Advanced Audio Codec
Format profile : LC
Codec ID : 40
Duration : 13 min
Bit rate mode : Constant
Bit rate : 126 kb/s
Channel(s) : 2 channels
Channel positions : Front: L R
Sampling rate : 44.1 kHz
Frame rate : 43.066 FPS (1024 spf)
Compression mode : Lossy
Stream size : 11.7 MiB (5%)
Default : Yes
Alternate group : 1
Скрытое содержимое могут видеть только пользователь группы: Member
 

admin

Мега активный
Команда форума
Администратор
Сообщения
756
Баллы
114

Название: Т/П «Тайны сказок с Анной Ковальчук» - «Купите радость» [Спас ТВ, 23.09.2018]
Жанр: сказка
Канал: Спас ТВ
Дата выхода: 23.09.2018
Продолжительность: 00:13:00
1. Купите радость (автор: Ирина Рогалева) (Читает: Анна Ковальчук)
2. Притча «Бабочка и ворона» Книга: Мудрый ослик. Притчи для детей - автор Клюкина Ольга. (Читает: Анна Ковальчук)
General
Complete name : ТП «Тайны сказок с Анной Ковальчук» - «Купите радость» [Спас ТВ, 23.09.2018].mp4
Format : MPEG-4
Format profile : Base Media
Codec ID : isom (isom/iso2/avc1/mp41)
File size : 395 MiB
Duration : 13 min
Overall bit rate : 4 252 kb/s
Writing application : Lavf57.2.100

Video
ID : 1
Format : AVC
Format/Info : Advanced Video Codec
Format profile : High@L4
Format settings, CABAC : Yes
Format settings, ReFrames : 2 frames
Codec ID : avc1
Codec ID/Info : Advanced Video Coding
Duration : 13 min
Bit rate : 4 121 kb/s
Width : 1 920 pixels
Height : 1 080 pixels
Display aspect ratio : 16:9
Frame rate mode : Constant
Frame rate : 25.000 FPS
Color space : YUV
Chroma subsampling : 4:2:0
Bit depth : 8 bits
Scan type : Progressive
Bits/(Pixel*Frame) : 0.080
Stream size : 383 MiB (97%)
Color range : Limited
Color primaries : BT.709
Transfer characteristics : BT.709
Matrix coefficients : BT.709

Audio
ID : 2
Format : AAC
Format/Info : Advanced Audio Codec
Format profile : LC
Codec ID : 40
Duration : 13 min
Bit rate mode : Constant
Bit rate : 126 kb/s
Channel(s) : 2 channels
Channel positions : Front: L R
Sampling rate : 44.1 kHz
Frame rate : 43.066 FPS (1024 spf)
Compression mode : Lossy
Stream size : 11.7 MiB (3%)
Default : Yes
Alternate group : 1
Скрытое содержимое могут видеть только пользователь группы: Member
 
Последнее редактирование:

admin

Мега активный
Команда форума
Администратор
Сообщения
756
Баллы
114

Название: Т/П «Тайны сказок с Анной Ковальчук» - «О том, как птичка - невеличка Марье - рукодельнице помогла» [Спас ТВ, 23.09.2018]
Жанр: сказка
Канал: Спас ТВ
Дата выхода: 23.09.2018
Продолжительность: 00:13:00
1. О том, как птичка - невеличка Марье - рукодельнице помогла (автор: Ирина Рогалева) (Читает: Анна Ковальчук)
General
Complete name : ТП «Тайны сказок с Анной Ковальчук» - «О том, как птичка - невеличка Марье - рукодельнице помогла» [Спас ТВ, 23.09.2018].mp4
Format : MPEG-4
Format profile : Base Media
Codec ID : isom (isom/iso2/avc1/mp41)
File size : 397 MiB
Duration : 13 min
Overall bit rate : 4 273 kb/s
Writing application : Lavf57.2.100

Video
ID : 1
Format : AVC
Format/Info : Advanced Video Codec
Format profile : High@L4
Format settings, CABAC : Yes
Format settings, ReFrames : 2 frames
Codec ID : avc1
Codec ID/Info : Advanced Video Coding
Duration : 13 min
Bit rate : 4 143 kb/s
Width : 1 920 pixels
Height : 1 080 pixels
Display aspect ratio : 16:9
Frame rate mode : Constant
Frame rate : 25.000 FPS
Color space : YUV
Chroma subsampling : 4:2:0
Bit depth : 8 bits
Scan type : Progressive
Bits/(Pixel*Frame) : 0.080
Stream size : 385 MiB (97%)
Color range : Limited
Color primaries : BT.709
Transfer characteristics : BT.709
Matrix coefficients : BT.709

Audio
ID : 2
Format : AAC
Format/Info : Advanced Audio Codec
Format profile : LC
Codec ID : 40
Duration : 13 min
Bit rate mode : Constant
Bit rate : 126 kb/s
Channel(s) : 2 channels
Channel positions : Front: L R
Sampling rate : 44.1 kHz
Frame rate : 43.066 FPS (1024 spf)
Compression mode : Lossy
Stream size : 11.7 MiB (3%)
Default : Yes
Alternate group : 1
Скрытое содержимое могут видеть только пользователь группы: Member
 

admin

Мега активный
Команда форума
Администратор
Сообщения
756
Баллы
114

Название: Т/П «Тайны сказок с Анной Ковальчук» - «Равнодушие» [Спас ТВ, 30.09.2018]
Жанр: сказка
Канал: Спас ТВ
Дата выхода: 30.09.2018
Продолжительность: 00:13:00
1. Равнодушие (автор: Николай Агафонов ) (Читает: Анна Ковальчук)
2. Притча «Про счастье» Книга: Мудрый ослик. Притчи для детей - автор Клюкина Ольга. (Читает: Анна Ковальчук)
General
Complete name : ТП «Тайны сказок с Анной Ковальчук» - «Равнодушие» [Спас ТВ, 30.09.2018].mp4
Format : MPEG-4
Format profile : Base Media
Codec ID : isom (isom/iso2/avc1/mp41)
File size : 389 MiB
Duration : 13 min
Overall bit rate : 4 187 kb/s
Writing application : Lavf57.2.100

Video
ID : 1
Format : AVC
Format/Info : Advanced Video Codec
Format profile : High@L4
Format settings, CABAC : Yes
Format settings, ReFrames : 2 frames
Codec ID : avc1
Codec ID/Info : Advanced Video Coding
Duration : 13 min
Bit rate : 4 056 kb/s
Width : 1 920 pixels
Height : 1 080 pixels
Display aspect ratio : 16:9
Frame rate mode : Constant
Frame rate : 25.000 FPS
Color space : YUV
Chroma subsampling : 4:2:0
Bit depth : 8 bits
Scan type : Progressive
Bits/(Pixel*Frame) : 0.078
Stream size : 377 MiB (97%)
Color range : Limited
Color primaries : BT.709
Transfer characteristics : BT.709
Matrix coefficients : BT.709

Audio
ID : 2
Format : AAC
Format/Info : Advanced Audio Codec
Format profile : LC
Codec ID : 40
Duration : 13 min
Bit rate mode : Constant
Bit rate : 126 kb/s
Channel(s) : 2 channels
Channel positions : Front: L R
Sampling rate : 44.1 kHz
Frame rate : 43.066 FPS (1024 spf)
Compression mode : Lossy
Stream size : 11.7 MiB (3%)
Default : Yes
Alternate group : 1
Скрытое содержимое могут видеть только пользователь группы: Member
 

admin

Мега активный
Команда форума
Администратор
Сообщения
756
Баллы
114

Название: Т/П «Тайны сказок с Анной Ковальчук» - «Волшебное слово» [Спас ТВ, 30.09.2018]
Жанр: сказка
Канал: Спас ТВ
Дата выхода: 30.09.2018
Продолжительность: 00:13:00
Волшебное слово (автор: Валентина Осеева ) (Читает: Анна Ковальчук)
General
Complete name : ТП «Тайны сказок с Анной Ковальчук» - «Волшебное слово» [Спас ТВ, 30.09.2018].mp4
Format : MPEG-4
Format profile : Base Media
Codec ID : isom (isom/iso2/avc1/mp41)
File size : 413 MiB
Duration : 13 min
Overall bit rate : 4 441 kb/s
Writing application : Lavf57.2.100

Video
ID : 1
Format : AVC
Format/Info : Advanced Video Codec
Format profile : High@L4
Format settings, CABAC : Yes
Format settings, ReFrames : 2 frames
Codec ID : avc1
Codec ID/Info : Advanced Video Coding
Duration : 13 min
Bit rate : 4 311 kb/s
Width : 1 920 pixels
Height : 1 080 pixels
Display aspect ratio : 16:9
Frame rate mode : Constant
Frame rate : 25.000 FPS
Color space : YUV
Chroma subsampling : 4:2:0
Bit depth : 8 bits
Scan type : Progressive
Bits/(Pixel*Frame) : 0.083
Stream size : 401 MiB (97%)
Color range : Limited
Color primaries : BT.709
Transfer characteristics : BT.709
Matrix coefficients : BT.709

Audio
ID : 2
Format : AAC
Format/Info : Advanced Audio Codec
Format profile : LC
Codec ID : 40
Duration : 13 min
Bit rate mode : Constant
Bit rate : 126 kb/s
Channel(s) : 2 channels
Channel positions : Front: L R
Sampling rate : 44.1 kHz
Frame rate : 43.066 FPS (1024 spf)
Compression mode : Lossy
Stream size : 11.7 MiB (3%)
Default : Yes
Alternate group : 1
Скрытое содержимое могут видеть только пользователь группы: Member
 

admin

Мега активный
Команда форума
Администратор
Сообщения
756
Баллы
114

Название: Т/П «Тайны сказок с Анной Ковальчук» - «Саша» [Спас ТВ, 06.10.2018]
Жанр: сказка
Канал: Спас ТВ
Дата выхода: 06.10.2018
Продолжительность: 00:13:00
Саша (автор: Николай Носов ) (Читает: Анна Ковальчук)
General
Complete name : ТП «Тайны сказок с Анной Ковальчук» - «Саша» [Спас ТВ, 06.10.2018].mp4
Format : MPEG-4
Format profile : Base Media
Codec ID : isom (isom/iso2/avc1/mp41)
File size : 257 MiB
Duration : 13 min
Overall bit rate : 2 760 kb/s
Writing application : Lavf57.2.100

Video
ID : 1
Format : AVC
Format/Info : Advanced Video Codec
Format profile : High@L4
Format settings, CABAC : Yes
Format settings, ReFrames : 3 frames
Codec ID : avc1
Codec ID/Info : Advanced Video Coding
Duration : 13 min
Bit rate : 2 629 kb/s
Width : 1 920 pixels
Height : 1 080 pixels
Display aspect ratio : 16:9
Frame rate mode : Constant
Frame rate : 25.000 FPS
Color space : YUV
Chroma subsampling : 4:2:0
Bit depth : 8 bits
Scan type : Progressive
Bits/(Pixel*Frame) : 0.051
Stream size : 244 MiB (95%)
Color range : Limited
Color primaries : BT.709
Transfer characteristics : BT.709
Matrix coefficients : BT.709

Audio
ID : 2
Format : AAC
Format/Info : Advanced Audio Codec
Format profile : LC
Codec ID : 40
Duration : 13 min
Bit rate mode : Constant
Bit rate : 126 kb/s
Channel(s) : 2 channels
Channel positions : Front: L R
Sampling rate : 44.1 kHz
Frame rate : 43.066 FPS (1024 spf)
Compression mode : Lossy
Stream size : 11.7 MiB (5%)
Default : Yes
Alternate group : 1
Скрытое содержимое могут видеть только пользователь группы: Member
 

admin

Мега активный
Команда форума
Администратор
Сообщения
756
Баллы
114

Название: Т/П «Тайны сказок с Анной Ковальчук» - «Храбрый клоун» - «Добрая раковина» [Спас ТВ, 14.10.2018]
Жанр: сказка
Канал: Спас ТВ
Дата выхода: 14.10.2018
Продолжительность: 00:13:00
1. Храбрый клоун (автор: Сергей Воронин ) (Читает: Анна Ковальчук)
2. Добрая раковина (автор: Сергей Воронин ) (Читает: Анна Ковальчук)
General
Complete name : ТП «Тайны сказок с Анной Ковальчук» - «Храбрый клоун» - «Добрая раковина» [Спас ТВ, 14.10.2018].mp4
Format : MPEG-4
Format profile : Base Media
Codec ID : isom (isom/iso2/avc1/mp41)
File size : 269 MiB
Duration : 13 min
Overall bit rate : 2 888 kb/s
Writing application : Lavf57.2.100

Video
ID : 1
Format : AVC
Format/Info : Advanced Video Codec
Format profile : High@L4
Format settings, CABAC : Yes
Format settings, ReFrames : 3 frames
Codec ID : avc1
Codec ID/Info : Advanced Video Coding
Duration : 13 min
Bit rate : 2 754 kb/s
Width : 1 920 pixels
Height : 1 080 pixels
Display aspect ratio : 16:9
Frame rate mode : Constant
Frame rate : 25.000 FPS
Color space : YUV
Chroma subsampling : 4:2:0
Bit depth : 8 bits
Scan type : Progressive
Bits/(Pixel*Frame) : 0.053
Stream size : 256 MiB (95%)
Color range : Limited
Color primaries : BT.709
Transfer characteristics : BT.709
Matrix coefficients : BT.709

Audio
ID : 2
Format : AAC
Format/Info : Advanced Audio Codec
Format profile : LC
Codec ID : 40
Duration : 13 min
Bit rate mode : Constant
Bit rate : 128 kb/s
Channel(s) : 2 channels
Channel positions : Front: L R
Sampling rate : 44.1 kHz
Frame rate : 43.066 FPS (1024 spf)
Compression mode : Lossy
Stream size : 11.9 MiB (4%)
Default : Yes
Alternate group : 1
Скрытое содержимое могут видеть только пользователь группы: Member
 
Последнее редактирование:

admin

Мега активный
Команда форума
Администратор
Сообщения
756
Баллы
114

Название: Т/П «Тайны сказок с Анной Ковальчук» - «Друг детства» [Спас ТВ, 21.10.2018]
Жанр: сказка
Канал: Спас ТВ
Дата выхода: 21.10.2018
Продолжительность: 00:13:00
1. «Друг детства» Книга: Денискины рассказы - автор Виктор Драгунский. (Читает: Анна Ковальчук)
General
Complete name : ТП «Тайны сказок с Анной Ковальчук» - «Друг детства» [Спас ТВ, 21.10.2018].mp4
Format : MPEG-4
Format profile : Base Media
Codec ID : isom (isom/iso2/avc1/mp41)
File size : 400 MiB
Duration : 13 min
Overall bit rate : 4 297 kb/s
Writing application : Lavf57.2.100

Video
ID : 1
Format : AVC
Format/Info : Advanced Video Codec
Format profile : High@L4
Format settings, CABAC : Yes
Format settings, ReFrames : 2 frames
Codec ID : avc1
Codec ID/Info : Advanced Video Coding
Duration : 13 min
Bit rate : 4 164 kb/s
Width : 1 920 pixels
Height : 1 080 pixels
Display aspect ratio : 16:9
Frame rate mode : Constant
Frame rate : 25.000 FPS
Color space : YUV
Chroma subsampling : 4:2:0
Bit depth : 8 bits
Scan type : Progressive
Bits/(Pixel*Frame) : 0.080
Stream size : 387 MiB (97%)
Color range : Limited
Color primaries : BT.709
Transfer characteristics : BT.709
Matrix coefficients : BT.709

Audio
ID : 2
Format : AAC
Format/Info : Advanced Audio Codec
Format profile : LC
Codec ID : 40
Duration : 13 min
Bit rate mode : Constant
Bit rate : 128 kb/s
Channel(s) : 2 channels
Channel positions : Front: L R
Sampling rate : 44.1 kHz
Frame rate : 43.066 FPS (1024 spf)
Compression mode : Lossy
Stream size : 11.9 MiB (3%)
Default : Yes
Alternate group : 1
Скрытое содержимое могут видеть только пользователь группы: Member
 
Последнее редактирование:

admin

Мега активный
Команда форума
Администратор
Сообщения
756
Баллы
114

Название: Т/П «Тайны сказок с Анной Ковальчук» - «Сказка про богатого купца и простого кузнеца» [Спас ТВ, 28.10.2018]
Жанр: сказка
Канал: Спас ТВ
Дата выхода: 28.10.2018
Продолжительность: 00:13:00
1. «Сказка про богатого купца и простого кузнеца» - автор Наталья Климова. (Читает: Анна Ковальчук)
General
Complete name : ТП «Тайны сказок с Анной Ковальчук» - «Сказка про богатого купца и простого кузнеца» [Спас ТВ, 28.10.2018].mp4
Format : MPEG-4
Format profile : Base Media
Codec ID : isom (isom/iso2/avc1/mp41)
File size : 406 MiB
Duration : 13 min
Overall bit rate : 4 367 kb/s
Writing application : Lavf57.2.100

Video
ID : 1
Format : AVC
Format/Info : Advanced Video Codec
Format profile : High@L4
Format settings, CABAC : Yes
Format settings, ReFrames : 2 frames
Codec ID : avc1
Codec ID/Info : Advanced Video Coding
Duration : 13 min
Bit rate : 4 234 kb/s
Width : 1 920 pixels
Height : 1 080 pixels
Display aspect ratio : 16:9
Frame rate mode : Constant
Frame rate : 25.000 FPS
Color space : YUV
Chroma subsampling : 4:2:0
Bit depth : 8 bits
Scan type : Progressive
Bits/(Pixel*Frame) : 0.082
Stream size : 394 MiB (97%)
Color range : Limited
Color primaries : BT.709
Transfer characteristics : BT.709
Matrix coefficients : BT.709

Audio
ID : 2
Format : AAC
Format/Info : Advanced Audio Codec
Format profile : LC
Codec ID : 40
Duration : 13 min
Bit rate mode : Constant
Bit rate : 128 kb/s
Channel(s) : 2 channels
Channel positions : Front: L R
Sampling rate : 44.1 kHz
Frame rate : 43.066 FPS (1024 spf)
Compression mode : Lossy
Stream size : 11.9 MiB (3%)
Default : Yes
Alternate group : 1
Скрытое содержимое могут видеть только пользователь группы: Member
 
Последнее редактирование:

admin

Мега активный
Команда форума
Администратор
Сообщения
756
Баллы
114

Название: Т/П «Тайны сказок с Анной Ковальчук» - «Снежный шар» [Спас ТВ, 04.11.2018]
Жанр: сказка
Канал: Спас ТВ
Дата выхода: 04.11.2018
Продолжительность: 00:13:00
1. «Снежный шар» - автор Ольга Фадеева. (Читает: Анна Ковальчук)
General
Complete name : ТП «Тайны сказок с Анной Ковальчук» - «Снежный шар» [Спас ТВ, 04.11.2018].mp4
Format : MPEG-4
Format profile : Base Media
Codec ID : isom (isom/iso2/avc1/mp41)
File size : 423 MiB
Duration : 13 min
Overall bit rate : 4 551 kb/s
Writing application : Lavf57.2.100

Video
ID : 1
Format : AVC
Format/Info : Advanced Video Codec
Format profile : High@L4
Format settings, CABAC : Yes
Format settings, ReFrames : 2 frames
Codec ID : avc1
Codec ID/Info : Advanced Video Coding
Duration : 13 min
Bit rate : 4 418 kb/s
Width : 1 920 pixels
Height : 1 080 pixels
Display aspect ratio : 16:9
Frame rate mode : Constant
Frame rate : 25.000 FPS
Color space : YUV
Chroma subsampling : 4:2:0
Bit depth : 8 bits
Scan type : Progressive
Bits/(Pixel*Frame) : 0.085
Stream size : 411 MiB (97%)
Color range : Limited
Color primaries : BT.709
Transfer characteristics : BT.709
Matrix coefficients : BT.709

Audio
ID : 2
Format : AAC
Format/Info : Advanced Audio Codec
Format profile : LC
Codec ID : 40
Duration : 13 min
Bit rate mode : Constant
Bit rate : 128 kb/s
Channel(s) : 2 channels
Channel positions : Front: L R
Sampling rate : 44.1 kHz
Frame rate : 43.066 FPS (1024 spf)
Compression mode : Lossy
Stream size : 11.9 MiB (3%)
Default : Yes
Alternate group : 1
Скрытое содержимое могут видеть только пользователь группы: Member
 
Последнее редактирование:

admin

Мега активный
Команда форума
Администратор
Сообщения
756
Баллы
114

Название: Т/П «Тайны сказок с Анной Ковальчук» - «Он живой и светится» [Спас ТВ, 11.11.2018]
Жанр: сказка
Канал: Спас ТВ
Дата выхода: 11.11.2018
Продолжительность: 00:13:00
1. «Он живой и светится» - автор Виктор Драгунский. (Читает: Анна Ковальчук)
General
Complete name : ТП «Тайны сказок с Анной Ковальчук» - «Он живой и светится» [Спас ТВ, 11.11.2018].mp4
Format : MPEG-4
Format profile : Base Media
Codec ID : isom (isom/iso2/avc1/mp41)
File size : 372 MiB
Duration : 13 min
Overall bit rate : 4 005 kb/s
Writing application : Lavf57.2.100

Video
ID : 1
Format : AVC
Format/Info : Advanced Video Codec
Format profile : High@L4
Format settings, CABAC : Yes
Format settings, ReFrames : 2 frames
Codec ID : avc1
Codec ID/Info : Advanced Video Coding
Duration : 13 min
Bit rate : 3 872 kb/s
Width : 1 920 pixels
Height : 1 080 pixels
Display aspect ratio : 16:9
Frame rate mode : Constant
Frame rate : 25.000 FPS
Color space : YUV
Chroma subsampling : 4:2:0
Bit depth : 8 bits
Scan type : Progressive
Bits/(Pixel*Frame) : 0.075
Stream size : 360 MiB (97%)
Color range : Limited
Color primaries : BT.709
Transfer characteristics : BT.709
Matrix coefficients : BT.709

Audio
ID : 2
Format : AAC
Format/Info : Advanced Audio Codec
Format profile : LC
Codec ID : 40
Duration : 13 min
Bit rate mode : Constant
Bit rate : 128 kb/s
Channel(s) : 2 channels
Channel positions : Front: L R
Sampling rate : 44.1 kHz
Frame rate : 43.066 FPS (1024 spf)
Compression mode : Lossy
Stream size : 11.9 MiB (3%)
Default : Yes
Alternate group : 1
Скрытое содержимое могут видеть только пользователь группы: Member
 
Последнее редактирование:

admin

Мега активный
Команда форума
Администратор
Сообщения
756
Баллы
114

Название: Т/П «Тайны сказок с Анной Ковальчук» - «Душа» - «Старые вишни» [Спас ТВ, 18.11.2018]
Жанр: сказка
Канал: Спас ТВ
Дата выхода: 18.11.2018
Продолжительность: 00:13:00
1. «Душа» - автор Светлана Горева. (Читает: Анна Ковальчук)
2. «Старые вишни» - автор Светлана Горева. (Читает: Анна Ковальчук)
General
Complete name : ТП «Тайны сказок с Анной Ковальчук» - «Душа» - «Старые вишни» Спас ТВ, 18.11.2018].mp4
Format : MPEG-4
Format profile : Base Media
Codec ID : isom (isom/iso2/avc1/mp41)
File size : 282 MiB
Duration : 13 min
Overall bit rate : 3 027 kb/s
Writing application : Lavf57.2.100

Video
ID : 1
Format : AVC
Format/Info : Advanced Video Codec
Format profile : High@L4
Format settings, CABAC : Yes
Format settings, ReFrames : 3 frames
Codec ID : avc1
Codec ID/Info : Advanced Video Coding
Duration : 13 min
Bit rate : 2 894 kb/s
Width : 1 920 pixels
Height : 1 080 pixels
Display aspect ratio : 16:9
Frame rate mode : Constant
Frame rate : 25.000 FPS
Color space : YUV
Chroma subsampling : 4:2:0
Bit depth : 8 bits
Scan type : Progressive
Bits/(Pixel*Frame) : 0.056
Stream size : 269 MiB (96%)
Color range : Limited
Color primaries : BT.709
Transfer characteristics : BT.709
Matrix coefficients : BT.709

Audio
ID : 2
Format : AAC
Format/Info : Advanced Audio Codec
Format profile : LC
Codec ID : 40
Duration : 13 min
Bit rate mode : Constant
Bit rate : 128 kb/s
Channel(s) : 2 channels
Channel positions : Front: L R
Sampling rate : 44.1 kHz
Frame rate : 43.066 FPS (1024 spf)
Compression mode : Lossy
Stream size : 11.9 MiB (4%)
Default : Yes
Alternate group : 1
Скрытое содержимое могут видеть только пользователь группы: Member
 
Последнее редактирование:

admin

Мега активный
Команда форума
Администратор
Сообщения
756
Баллы
114

Название: Т/П «Тайны сказок с Анной Ковальчук» - «Как Маша стала большой» - «Как-то вечером» [Спас ТВ, 25.11.2018]
Жанр: сказка
Канал: Спас ТВ
Дата выхода: 25.11.2018
Продолжительность: 00:13:00
1. «Как Маша стала большой» - автор Евгений Пермяк. (Читает: Анна Ковальчук)
2. «Как-то вечером» - автор Марина Потоцкая. (Читает: Анна Ковальчук)
General
Complete name : ТП «Тайны сказок с Анной Ковальчук» - «Как Маша стала большой» - «Как-то вечером» Спас ТВ, 25.11.2018].mp4
Format : MPEG-4
Format profile : Base Media
Codec ID : isom (isom/iso2/avc1/mp41)
File size : 275 MiB
Duration : 13 min
Overall bit rate : 2 954 kb/s
Writing application : Lavf57.2.100

Video
ID : 1
Format : AVC
Format/Info : Advanced Video Codec
Format profile : High@L4
Format settings, CABAC : Yes
Format settings, ReFrames : 3 frames
Codec ID : avc1
Codec ID/Info : Advanced Video Coding
Duration : 13 min
Bit rate : 2 821 kb/s
Width : 1 920 pixels
Height : 1 080 pixels
Display aspect ratio : 16:9
Frame rate mode : Constant
Frame rate : 25.000 FPS
Color space : YUV
Chroma subsampling : 4:2:0
Bit depth : 8 bits
Scan type : Progressive
Bits/(Pixel*Frame) : 0.054
Stream size : 262 MiB (95%)
Color range : Limited
Color primaries : BT.709
Transfer characteristics : BT.709
Matrix coefficients : BT.709

Audio
ID : 2
Format : AAC
Format/Info : Advanced Audio Codec
Format profile : LC
Codec ID : 40
Duration : 13 min
Bit rate mode : Constant
Bit rate : 128 kb/s
Channel(s) : 2 channels
Channel positions : Front: L R
Sampling rate : 44.1 kHz
Frame rate : 43.066 FPS (1024 spf)
Compression mode : Lossy
Stream size : 11.9 MiB (4%)
Default : Yes
Alternate group : 1
Скрытое содержимое могут видеть только пользователь группы: Member
 
Последнее редактирование:

admin

Мега активный
Команда форума
Администратор
Сообщения
756
Баллы
114

Название: Т/П «Тайны сказок с Анной Ковальчук» - «Самая самая мама» - «Чей дом» [Спас ТВ, 02.12.2018]
Жанр: сказка
Канал: Спас ТВ
Дата выхода: 02.12.2018
Продолжительность: 00:13:00
1. «Самая самая мама» - автор Алексей Шевченко. (Читает: Анна Ковальчук)
2. «Чей дом» - автор Алексей Шевченко. (Читает: Анна Ковальчук)
General
Complete name : ТП «Тайны сказок с Анной Ковальчук» - «Самая самая мама» - «Чей дом» [Спас ТВ, 02.12.2018].mp4
Format : MPEG-4
Format profile : Base Media
Codec ID : isom (isom/iso2/avc1/mp41)
File size : 392 MiB
Duration : 13 min
Overall bit rate : 4 216 kb/s
Writing application : Lavf57.2.100

Video
ID : 1
Format : AVC
Format/Info : Advanced Video Codec
Format profile : High@L4
Format settings, CABAC : Yes
Format settings, ReFrames : 3 frames
Codec ID : avc1
Codec ID/Info : Advanced Video Coding
Duration : 13 min
Bit rate : 4 083 kb/s
Width : 1 920 pixels
Height : 1 080 pixels
Display aspect ratio : 16:9
Frame rate mode : Constant
Frame rate : 25.000 FPS
Color space : YUV
Chroma subsampling : 4:2:0
Bit depth : 8 bits
Scan type : Progressive
Bits/(Pixel*Frame) : 0.079
Stream size : 380 MiB (97%)
Color range : Limited
Color primaries : BT.709
Transfer characteristics : BT.709
Matrix coefficients : BT.709

Audio
ID : 2
Format : AAC
Format/Info : Advanced Audio Codec
Format profile : LC
Codec ID : 40
Duration : 13 min
Bit rate mode : Constant
Bit rate : 128 kb/s
Channel(s) : 2 channels
Channel positions : Front: L R
Sampling rate : 44.1 kHz
Frame rate : 43.066 FPS (1024 spf)
Compression mode : Lossy
Stream size : 11.9 MiB (3%)
Default : Yes
Alternate group : 1
Скрытое содержимое могут видеть только пользователь группы: Member
 
Последнее редактирование:

admin

Мега активный
Команда форума
Администратор
Сообщения
756
Баллы
114

Название: Т/П «Тайны сказок с Анной Ковальчук» - «Ёжик из супермаркета» [Спас ТВ, 09.12.2018]
Жанр: сказка
Канал: Спас ТВ
Дата выхода: 09.12.2018
Продолжительность: 00:13:00
1. «Ёжик из супермаркета» - автор Марина Потоцкая. (Читает: Анна Ковальчук)
General
Complete name : ТП «Тайны сказок с Анной Ковальчук» - «Ёжик из супермаркета» [Спас ТВ, 09.12.2018].mp4
Format : MPEG-4
Format profile : Base Media
Codec ID : isom (isom/iso2/avc1/mp41)
File size : 387 MiB
Duration : 13 min
Overall bit rate : 4 165 kb/s
Writing application : Lavf57.2.100

Video
ID : 1
Format : AVC
Format/Info : Advanced Video Codec
Format profile : High@L4
Format settings, CABAC : Yes
Format settings, ReFrames : 3 frames
Codec ID : avc1
Codec ID/Info : Advanced Video Coding
Duration : 13 min
Bit rate : 4 032 kb/s
Width : 1 920 pixels
Height : 1 080 pixels
Display aspect ratio : 16:9
Frame rate mode : Constant
Frame rate : 25.000 FPS
Color space : YUV
Chroma subsampling : 4:2:0
Bit depth : 8 bits
Scan type : Progressive
Bits/(Pixel*Frame) : 0.078
Stream size : 375 MiB (97%)
Color range : Limited
Color primaries : BT.709
Transfer characteristics : BT.709
Matrix coefficients : BT.709

Audio
ID : 2
Format : AAC
Format/Info : Advanced Audio Codec
Format profile : LC
Codec ID : 40
Duration : 13 min
Bit rate mode : Constant
Bit rate : 128 kb/s
Channel(s) : 2 channels
Channel positions : Front: L R
Sampling rate : 44.1 kHz
Frame rate : 43.066 FPS (1024 spf)
Compression mode : Lossy
Stream size : 11.9 MiB (3%)
Default : Yes
Alternate group : 1
Скрытое содержимое могут видеть только пользователь группы: Member
 
Последнее редактирование:

admin

Мега активный
Команда форума
Администратор
Сообщения
756
Баллы
114

Название: Т/П «Тайны сказок с Анной Ковальчук» - «Что я люблю» - «... и чего не люблю» [Спас ТВ, 16.12.2018]
Жанр: сказка
Канал: Спас ТВ
Дата выхода: 16.12.2018
Продолжительность: 00:13:00
1. «Что я люблю» - автор Виктор Драгунский. (Читает: Анна Ковальчук)
2. «... и чего не люблю» - автор Виктор Драгунский. (Читает: Анна Ковальчук)
General
Complete name : ТП «Тайны сказок с Анной Ковальчук» - «Что я люблю» - «... и чего не люблю» [Спас ТВ, 16.12.2018].mp4
Format : MPEG-4
Format profile : Base Media
Codec ID : isom (isom/iso2/avc1/mp41)
File size : 287 MiB
Duration : 13 min
Overall bit rate : 3 089 kb/s
Writing application : Lavf57.2.100

Video
ID : 1
Format : AVC
Format/Info : Advanced Video Codec
Format profile : High@L4
Format settings, CABAC : Yes
Format settings, ReFrames : 3 frames
Codec ID : avc1
Codec ID/Info : Advanced Video Coding
Duration : 13 min
Bit rate : 2 956 kb/s
Width : 1 920 pixels
Height : 1 080 pixels
Display aspect ratio : 16:9
Frame rate mode : Constant
Frame rate : 25.000 FPS
Color space : YUV
Chroma subsampling : 4:2:0
Bit depth : 8 bits
Scan type : Progressive
Bits/(Pixel*Frame) : 0.057
Stream size : 275 MiB (96%)
Color range : Limited
Color primaries : BT.709
Transfer characteristics : BT.709
Matrix coefficients : BT.709

Audio
ID : 2
Format : AAC
Format/Info : Advanced Audio Codec
Format profile : LC
Codec ID : 40
Duration : 13 min
Bit rate mode : Constant
Bit rate : 128 kb/s
Channel(s) : 2 channels
Channel positions : Front: L R
Sampling rate : 44.1 kHz
Frame rate : 43.066 FPS (1024 spf)
Compression mode : Lossy
Stream size : 11.9 MiB (4%)
Default : Yes
Alternate group : 1
Скрытое содержимое могут видеть только пользователь группы: Member
 
Последнее редактирование:

admin

Мега активный
Команда форума
Администратор
Сообщения
756
Баллы
114

Название: Т/П «Тайны сказок с Анной Ковальчук» - «Сочинение » - «Часы выручили» [Спас ТВ, 23.12.2018]
Жанр: сказка
Канал: Спас ТВ
Дата выхода: 23.12.2018
Продолжительность: 00:13:00
1. «Сочинение» - автор Ирина Пивоварова. (Читает: Анна Ковальчук)
2. «Часы выручили» - автор Юрий Ермолаев. (Читает: Анна Ковальчук)
General
Complete name : ТП «Тайны сказок с Анной Ковальчук» - «Сочинение » - «Часы выручили» [Спас ТВ, 23.12.2018].mp4
Format : MPEG-4
Format profile : Base Media
Codec ID : isom (isom/iso2/avc1/mp41)
File size : 223 MiB
Duration : 13 min
Overall bit rate : 2 400 kb/s
Writing application : Lavf57.2.100

Video
ID : 1
Format : AVC
Format/Info : Advanced Video Codec
Format profile : High@L4
Format settings, CABAC : Yes
Format settings, ReFrames : 3 frames
Codec ID : avc1
Codec ID/Info : Advanced Video Coding
Duration : 13 min
Bit rate : 2 266 kb/s
Width : 1 920 pixels
Height : 1 080 pixels
Display aspect ratio : 16:9
Frame rate mode : Constant
Frame rate : 25.000 FPS
Color space : YUV
Chroma subsampling : 4:2:0
Bit depth : 8 bits
Scan type : Progressive
Bits/(Pixel*Frame) : 0.044
Stream size : 211 MiB (94%)
Color range : Limited
Color primaries : BT.709
Transfer characteristics : BT.709
Matrix coefficients : BT.709

Audio
ID : 2
Format : AAC
Format/Info : Advanced Audio Codec
Format profile : LC
Codec ID : 40
Duration : 13 min
Bit rate mode : Constant
Bit rate : 128 kb/s
Channel(s) : 2 channels
Channel positions : Front: L R
Sampling rate : 44.1 kHz
Frame rate : 43.066 FPS (1024 spf)
Compression mode : Lossy
Stream size : 11.9 MiB (5%)
Default : Yes
Alternate group : 1
Скрытое содержимое могут видеть только пользователь группы: Member
 
Последнее редактирование:

admin

Мега активный
Команда форума
Администратор
Сообщения
756
Баллы
114

Название: Т/П «Тайны сказок с Анной Ковальчук» - «Ошейник» [Спас ТВ, 30.12.2018]
Жанр: сказка
Канал: Спас ТВ
Дата выхода: 30.12.2018
Продолжительность: 00:13:00
1. «Ошейник» - автор Сергей Георгиев. (Читает: Анна Ковальчук)
Общее
Полное имя : ТП «Тайны сказок с Анной Ковальчук» - «Ошейник» [Спас ТВ, 30.12 (1).mp4
Формат : MPEG-4
Профиль формата : Base Media
Идентификатор кодека : isom (isom/iso2/avc1/mp41)
Размер файла : 361 Мбайт
Продолжительность : 13 м. 0 с.
Общий поток : 3877 Кбит/сек
Программа кодирования : Lavf57.2.100

Видео
Идентификатор : 1
Формат : AVC
Формат/Информация : Advanced Video Codec
Профиль формата : High@L4
Настройки формата : CABAC / 3 Ref Frames
Параметр CABAC формата : Да
Параметр RefFrames формата : 3 кадра
Идентификатор кодека : avc1
Идентификатор кодека/Информация : Advanced Video Coding
Продолжительность : 13 м. 0 с.
Битрейт : 3743 Кбит/сек
Ширина : 1920 пикселей
Высота : 1080 пикселей
Соотношение сторон : 16:9
Режим частоты кадров : Постоянный
Частота кадров : 25,000 кадров/сек
Цветовое пространство : YUV
Субдискретизация насыщенности : 4:2:0
Битовая глубина : 8 бит
Тип развёртки : Прогрессивная
Бит/(Пиксели*Кадры) : 0.072
Размер потока : 348 Мбайт (97%)
Цветовой диапазон : Limited
Основные цвета : BT.709
Характеристики трансфера : BT.709
Коэффициенты матрицы : BT.709
Codec configuration box : avcC

Аудио
Идентификатор : 2
Формат : AAC LC
Формат/Информация : Advanced Audio Codec Low Complexity
Идентификатор кодека : mp4a-40-2
Продолжительность : 13 м. 0 с.
Вид битрейта : Постоянный
Битрейт : 128 Кбит/сек
Каналы : 2 канала
Channel layout : L R
Частота : 44,1 КГц
Частота кадров : 43,066 кадра/сек (1024 SPF)
Метод сжатия : С потерями
Размер потока : 11,9 Мбайт (3%)
Default : Да
AlternateGroup/String : 1
Скрытое содержимое могут видеть только пользователь группы: Member
 
Последнее редактирование:


Сверху Снизу