• У вас есть интересные материалы (фото, видео, статьи и т.п.), и вы хотите, чтобы они были опубликованы у нас на форуме? Можете отправить их на наши @-mail адреса: support@anna-kovalchuk.h1n.ru или deutschgrundkurs@ya.ru Важно! Не забудьте указать свое имя или никнейм. Спасибо!!

Видео Т/П «Тайны сказок с Анной Ковальчук» [Спас тв, spastv.ru]


admin

Мега активный
Команда форума
Администратор
Сообщения
718
Баллы
89
Название: Т/П «Тайны сказок с Анной Ковальчук» - «Клоун, любивший аплодисменты» [Спас ТВ, 21.12.2019]
Жанр: Сказка
Канал: Спас ТВ
Дата выхода: 21.12.2019
Продолжительность: 00:13:00
  1. «Клоун, любивший аплодисменты» - автор Елена Ракитина. (Читает: Анна Ковальчук)
Общее
Полное имя : ТП «Тайны сказок с Анной Ковальчук» - «Клоун, любивший аплодисменты» [Спас ТВ, 21.12.2019].mp4
Формат : MPEG-4
Профиль формата : Base Media
Идентификатор кодека : isom (isom/iso2/avc1/mp41)
Размер файла : 417 Мбайт
Продолжительность : 13 м. 0 с.
Общий поток : 4489 Кбит/сек
Программа кодирования : Lavf56.15.100

Видео
Идентификатор : 1
Формат : AVC
Формат/Информация : Advanced Video Codec
Профиль формата : High@L4
Настройки формата : CABAC / 3 Ref Frames
Параметр CABAC формата : Да
Параметр RefFrames формата : 3 кадра
Идентификатор кодека : avc1
Идентификатор кодека/Информация : Advanced Video Coding
Продолжительность : 13 м. 0 с.
Битрейт : 4356 Кбит/сек
Ширина : 1920 пикселей
Высота : 1080 пикселей
Соотношение сторон : 16:9
Режим частоты кадров : Постоянный
Частота кадров : 25,000 кадров/сек
Цветовое пространство : YUV
Субдискретизация насыщенности : 4:2:0
Битовая глубина : 8 бит
Тип развёртки : Прогрессивная
Бит/(Пиксели*Кадры) : 0.084
Размер потока : 405 Мбайт (97%)
Цветовой диапазон : Limited
Основные цвета : BT.709
Характеристики трансфера : BT.709
Коэффициенты матрицы : BT.709
Codec configuration box : avcC

Аудио
Идентификатор : 2
Формат : AAC LC
Формат/Информация : Advanced Audio Codec Low Complexity
Идентификатор кодека : mp4a-40-2
Продолжительность : 13 м. 0 с.
Вид битрейта : Постоянный
Битрейт : 128 Кбит/сек
Каналы : 2 канала
ChannelLayout : L R
Частота : 44,1 КГц
Частота кадров : 43,066 кадра/сек (1024 SPF)
Метод сжатия : С потерями
Размер потока : 11,9 Мбайт (3%)
Default : Да
AlternateGroup/String : 1
 

admin

Мега активный
Команда форума
Администратор
Сообщения
718
Баллы
89
Название: Т/П «Тайны сказок с Анной Ковальчук» - «Принцесса в горошек» [Спас ТВ, 22.12.2019]
Жанр: Сказка
Канал: Спас ТВ
Дата выхода: 22.12.2019
Продолжительность: 00:13:00
  1. «Принцесса в горошек» - автор Ольга Камышева. (Читает: Анна Ковальчук)
Общее
Полное имя : ТП «Тайны сказок с Анной Ковальчук» - «Принцесса в горошек» [Спас ТВ, 22.12.2019].mp4
Формат : MPEG-4
Профиль формата : Base Media
Идентификатор кодека : isom (isom/iso2/avc1/mp41)
Размер файла : 410 Мбайт
Продолжительность : 13 м. 0 с.
Общий поток : 4409 Кбит/сек
Программа кодирования : Lavf56.15.100

Видео
Идентификатор : 1
Формат : AVC
Формат/Информация : Advanced Video Codec
Профиль формата : High@L4
Настройки формата : CABAC / 3 Ref Frames
Параметр CABAC формата : Да
Параметр RefFrames формата : 3 кадра
Идентификатор кодека : avc1
Идентификатор кодека/Информация : Advanced Video Coding
Продолжительность : 13 м. 0 с.
Битрейт : 4275 Кбит/сек
Ширина : 1920 пикселей
Высота : 1080 пикселей
Соотношение сторон : 16:9
Режим частоты кадров : Постоянный
Частота кадров : 25,000 кадров/сек
Цветовое пространство : YUV
Субдискретизация насыщенности : 4:2:0
Битовая глубина : 8 бит
Тип развёртки : Прогрессивная
Бит/(Пиксели*Кадры) : 0.082
Размер потока : 397 Мбайт (97%)
Цветовой диапазон : Limited
Основные цвета : BT.709
Характеристики трансфера : BT.709
Коэффициенты матрицы : BT.709
Codec configuration box : avcC

Аудио
Идентификатор : 2
Формат : AAC LC
Формат/Информация : Advanced Audio Codec Low Complexity
Идентификатор кодека : mp4a-40-2
Продолжительность : 13 м. 0 с.
Вид битрейта : Постоянный
Битрейт : 128 Кбит/сек
Каналы : 2 канала
ChannelLayout : L R
Частота : 44,1 КГц
Частота кадров : 43,066 кадра/сек (1024 SPF)
Метод сжатия : С потерями
Размер потока : 11,9 Мбайт (3%)
Default : Да
AlternateGroup/String : 1
 

admin

Мега активный
Команда форума
Администратор
Сообщения
718
Баллы
89
Название: Т/П «Тайны сказок с Анной Ковальчук» - «Почему на фее нет пыли...» [Спас ТВ, 28.12.2019]
Жанр: Сказка
Канал: Спас ТВ
Дата выхода: 28.12.2019
Продолжительность: 00:13:00
«Почему на фее нет пыли...» - Елена Ракитина. (Читает: Анна Ковальчук)
Общее
Полное имя : ТП «Тайны сказок с Анной Ковальчук» - «Почему на фее нет пыли...» [Спас ТВ, 28.12.2019].mp4
Формат : MPEG-4
Профиль формата : Base Media
Идентификатор кодека : isom (isom/iso2/avc1/mp41)
Размер файла : 418 Мбайт
Продолжительность : 13 м. 0 с.
Общий поток : 4499 Кбит/сек
Программа кодирования : Lavf58.27.103

Видео
Идентификатор : 1
Формат : AVC
Формат/Информация : Advanced Video Codec
Профиль формата : High@L4
Настройки формата : CABAC / 3 Ref Frames
Параметр CABAC формата : Да
Параметр RefFrames формата : 3 кадра
Идентификатор кодека : avc1
Идентификатор кодека/Информация : Advanced Video Coding
Продолжительность : 13 м. 0 с.
Битрейт : 4366 Кбит/сек
Ширина : 1920 пикселей
Высота : 1080 пикселей
Соотношение сторон : 16:9
Режим частоты кадров : Постоянный
Частота кадров : 25,000 кадров/сек
Цветовое пространство : YUV
Субдискретизация насыщенности : 4:2:0
Битовая глубина : 8 бит
Тип развёртки : Прогрессивная
Бит/(Пиксели*Кадры) : 0.084
Размер потока : 406 Мбайт (97%)
Заголовок : ISO Media file produced by Google Inc.
Цветовой диапазон : Limited
Основные цвета : BT.709
Характеристики трансфера : BT.709
Коэффициенты матрицы : BT.709
Codec configuration box : avcC

Аудио
Идентификатор : 2
Формат : AAC LC
Формат/Информация : Advanced Audio Codec Low Complexity
Идентификатор кодека : mp4a-40-2
Продолжительность : 13 м. 0 с.
Вид битрейта : Постоянный
Битрейт : 128 Кбит/сек
Каналы : 2 канала
ChannelLayout : L R
Частота : 44,1 КГц
Частота кадров : 43,066 кадра/сек (1024 SPF)
Метод сжатия : С потерями
Размер потока : 11,9 Мбайт (3%)
Заголовок : ISO Media file produced by Google Inc.
Default : Да
AlternateGroup/String : 1

Название: Т/П «Тайны сказок с Анной Ковальчук» - «Подарки для Христа» [Спас ТВ, 29.12.2019]
Жанр: Сказка
Канал: Спас ТВ
Дата выхода: 29.12.2019
Продолжительность: 00:13:00
«Подарки для Христа» - Марина Кравцова. (Читает: Анна Ковальчук)
Общее
Полное имя : ТП «Тайны сказок с Анной Ковальчук» - «Подарки для Христа» [Спас ТВ, 29.12.2019].mp4
Формат : MPEG-4
Профиль формата : Base Media
Идентификатор кодека : isom (isom/iso2/avc1/mp41)
Размер файла : 421 Мбайт
Продолжительность : 13 м. 0 с.
Общий поток : 4531 Кбит/сек
Программа кодирования : Lavf56.15.100

Видео
Идентификатор : 1
Формат : AVC
Формат/Информация : Advanced Video Codec
Профиль формата : High@L4
Настройки формата : CABAC / 3 Ref Frames
Параметр CABAC формата : Да
Параметр RefFrames формата : 3 кадра
Идентификатор кодека : avc1
Идентификатор кодека/Информация : Advanced Video Coding
Продолжительность : 13 м. 0 с.
Битрейт : 4397 Кбит/сек
Ширина : 1920 пикселей
Высота : 1080 пикселей
Соотношение сторон : 16:9
Режим частоты кадров : Постоянный
Частота кадров : 25,000 кадров/сек
Цветовое пространство : YUV
Субдискретизация насыщенности : 4:2:0
Битовая глубина : 8 бит
Тип развёртки : Прогрессивная
Бит/(Пиксели*Кадры) : 0.085
Размер потока : 409 Мбайт (97%)
Цветовой диапазон : Limited
Основные цвета : BT.709
Характеристики трансфера : BT.709
Коэффициенты матрицы : BT.709
Codec configuration box : avcC

Аудио
Идентификатор : 2
Формат : AAC LC
Формат/Информация : Advanced Audio Codec Low Complexity
Идентификатор кодека : mp4a-40-2
Продолжительность : 13 м. 0 с.
Вид битрейта : Постоянный
Битрейт : 128 Кбит/сек
Каналы : 2 канала
ChannelLayout : L R
Частота : 44,1 КГц
Частота кадров : 43,066 кадра/сек (1024 SPF)
Метод сжатия : С потерями
Размер потока : 11,9 Мбайт (3%)
Default : Да
AlternateGroup/String : 1
 

admin

Мега активный
Команда форума
Администратор
Сообщения
718
Баллы
89
Название: Т/П «Тайны сказок с Анной Ковальчук» - «Вера, Лира и мороженое» [Спас ТВ, 11.01.2020]
Жанр: Сказка
Канал: Спас ТВ
Дата выхода: 11.01.2020
Продолжительность: 00:13:00
  1. «Вера, Лира и мороженое» - автор Ольга Соколова. (Читает: Анна Ковальчук)
Общее
Полное имя : ТП «Тайны сказок с Анной Ковальчук» - «Вера, Лира и мороженое» [Спас ТВ, 11.01.2020].mp4
Формат : MPEG-4
Профиль формата : Base Media
Идентификатор кодека : isom (isom/iso2/avc1/mp41)
Размер файла : 393 Мбайт
Продолжительность : 13 м. 0 с.
Общий поток : 4223 Кбит/сек
Программа кодирования : Lavf56.15.100

Видео
Идентификатор : 1
Формат : AVC
Формат/Информация : Advanced Video Codec
Профиль формата : High@L4
Настройки формата : CABAC / 3 Ref Frames
Параметр CABAC формата : Да
Параметр RefFrames формата : 3 кадра
Идентификатор кодека : avc1
Идентификатор кодека/Информация : Advanced Video Coding
Продолжительность : 13 м. 0 с.
Битрейт : 4089 Кбит/сек
Ширина : 1920 пикселей
Высота : 1080 пикселей
Соотношение сторон : 16:9
Режим частоты кадров : Постоянный
Частота кадров : 25,000 кадров/сек
Цветовое пространство : YUV
Субдискретизация насыщенности : 4:2:0
Битовая глубина : 8 бит
Тип развёртки : Прогрессивная
Бит/(Пиксели*Кадры) : 0.079
Размер потока : 380 Мбайт (97%)
Цветовой диапазон : Limited
Основные цвета : BT.709
Характеристики трансфера : BT.709
Коэффициенты матрицы : BT.709
Codec configuration box : avcC

Аудио
Идентификатор : 2
Формат : AAC LC
Формат/Информация : Advanced Audio Codec Low Complexity
Идентификатор кодека : mp4a-40-2
Продолжительность : 13 м. 0 с.
Вид битрейта : Постоянный
Битрейт : 128 Кбит/сек
Каналы : 2 канала
ChannelLayout : L R
Частота : 44,1 КГц
Частота кадров : 43,066 кадра/сек (1024 SPF)
Метод сжатия : С потерями
Размер потока : 11,9 Мбайт (3%)
Default : Да
AlternateGroup/String : 1

Название: Т/П «Тайны сказок с Анной Ковальчук» - «О ленивой девочке и капризной технике» [Спас ТВ, 12.01.2020]
Жанр: Сказка
Канал: Спас ТВ
Дата выхода: 12.01.2020
Продолжительность: 00:13:00
  1. «О ленивой девочке и капризной технике» - автор Федор Шилов. (Читает: Анна Ковальчук)
Общее
Полное имя : ТП «Тайны сказок с Анной Ковальчук» - «О ленивой девочке и капризной технике» [Спас ТВ, 12.01.2020].mp4
Формат : MPEG-4
Профиль формата : Base Media
Идентификатор кодека : isom (isom/iso2/avc1/mp41)
Размер файла : 409 Мбайт
Продолжительность : 13 м. 0 с.
Общий поток : 4399 Кбит/сек
Программа кодирования : Lavf56.15.100

Видео
Идентификатор : 1
Формат : AVC
Формат/Информация : Advanced Video Codec
Профиль формата : High@L4
Настройки формата : CABAC / 3 Ref Frames
Параметр CABAC формата : Да
Параметр RefFrames формата : 3 кадра
Идентификатор кодека : avc1
Идентификатор кодека/Информация : Advanced Video Coding
Продолжительность : 13 м. 0 с.
Битрейт : 4265 Кбит/сек
Ширина : 1920 пикселей
Высота : 1080 пикселей
Соотношение сторон : 16:9
Режим частоты кадров : Постоянный
Частота кадров : 25,000 кадров/сек
Цветовое пространство : YUV
Субдискретизация насыщенности : 4:2:0
Битовая глубина : 8 бит
Тип развёртки : Прогрессивная
Бит/(Пиксели*Кадры) : 0.082
Размер потока : 397 Мбайт (97%)
Цветовой диапазон : Limited
Основные цвета : BT.709
Характеристики трансфера : BT.709
Коэффициенты матрицы : BT.709
Codec configuration box : avcC

Аудио
Идентификатор : 2
Формат : AAC LC
Формат/Информация : Advanced Audio Codec Low Complexity
Идентификатор кодека : mp4a-40-2
Продолжительность : 13 м. 0 с.
Вид битрейта : Постоянный
Битрейт : 128 Кбит/сек
Каналы : 2 канала
ChannelLayout : L R
Частота : 44,1 КГц
Частота кадров : 43,066 кадра/сек (1024 SPF)
Метод сжатия : С потерями
Размер потока : 11,9 Мбайт (3%)
Default : Да
AlternateGroup/String : 1
 

admin

Мега активный
Команда форума
Администратор
Сообщения
718
Баллы
89
Название: Т/П «Тайны сказок с Анной Ковальчук» - «Завистникам» [Спас ТВ, 18.01.2020]
Жанр: Сказка
Канал: Спас ТВ
Дата выхода: 18.01.2020
Продолжительность: 00:13:00
  1. «Завистникам» - автор Нелли Копейкина. (Читает: Анна Ковальчук)
Общее
Полное имя : ТП «Тайны сказок с Анной Ковальчук» - «Завистникам» [Спас ТВ, 18.01.2020].mp4
Формат : MPEG-4
Профиль формата : Base Media
Идентификатор кодека : isom (isom/iso2/avc1/mp41)
Размер файла : 416 Мбайт
Продолжительность : 13 м. 0 с.
Общий поток : 4473 Кбит/сек
Программа кодирования : Lavf56.15.100

Видео
Идентификатор : 1
Формат : AVC
Формат/Информация : Advanced Video Codec
Профиль формата : High@L4
Настройки формата : CABAC / 3 Ref Frames
Параметр CABAC формата : Да
Параметр RefFrames формата : 3 кадра
Идентификатор кодека : avc1
Идентификатор кодека/Информация : Advanced Video Coding
Продолжительность : 13 м. 0 с.
Битрейт : 4339 Кбит/сек
Ширина : 1920 пикселей
Высота : 1080 пикселей
Соотношение сторон : 16:9
Режим частоты кадров : Постоянный
Частота кадров : 25,000 кадров/сек
Цветовое пространство : YUV
Субдискретизация насыщенности : 4:2:0
Битовая глубина : 8 бит
Тип развёртки : Прогрессивная
Бит/(Пиксели*Кадры) : 0.084
Размер потока : 403 Мбайт (97%)
Цветовой диапазон : Limited
Основные цвета : BT.709
Характеристики трансфера : BT.709
Коэффициенты матрицы : BT.709
Codec configuration box : avcC

Аудио
Идентификатор : 2
Формат : AAC LC
Формат/Информация : Advanced Audio Codec Low Complexity
Идентификатор кодека : mp4a-40-2
Продолжительность : 13 м. 0 с.
Вид битрейта : Постоянный
Битрейт : 128 Кбит/сек
Каналы : 2 канала
ChannelLayout : L R
Частота : 44,1 КГц
Частота кадров : 43,066 кадра/сек (1024 SPF)
Метод сжатия : С потерями
Размер потока : 11,9 Мбайт (3%)
Default : Да
AlternateGroup/String : 1
 

admin

Мега активный
Команда форума
Администратор
Сообщения
718
Баллы
89
Название: Т/П «Тайны сказок с Анной Ковальчук» - «Бунт игрушек» [Спас ТВ, 19.01.2020]
Жанр: Сказка
Канал: Спас ТВ
Дата выхода: 19.01.2020
Продолжительность: 00:13:00
  1. «Бунт игрушек» - автор Станислав Маеренко. (Читает: Анна Ковальчук)
Общее
Полное имя : ТП «Тайны сказок с Анной Ковальчук» - «Бунт игрушек» [Спас ТВ, 19.01.2020].mp4
Формат : MPEG-4
Профиль формата : Base Media
Идентификатор кодека : isom (isom/iso2/avc1/mp41)
Размер файла : 388 Мбайт
Продолжительность : 13 м. 0 с.
Общий поток : 4170 Кбит/сек
Программа кодирования : Lavf56.15.100

Видео
Идентификатор : 1
Формат : AVC
Формат/Информация : Advanced Video Codec
Профиль формата : High@L4
Настройки формата : CABAC / 3 Ref Frames
Параметр CABAC формата : Да
Параметр RefFrames формата : 3 кадра
Идентификатор кодека : avc1
Идентификатор кодека/Информация : Advanced Video Coding
Продолжительность : 13 м. 0 с.
Битрейт : 4036 Кбит/сек
Ширина : 1920 пикселей
Высота : 1080 пикселей
Соотношение сторон : 16:9
Режим частоты кадров : Постоянный
Частота кадров : 25,000 кадров/сек
Цветовое пространство : YUV
Субдискретизация насыщенности : 4:2:0
Битовая глубина : 8 бит
Тип развёртки : Прогрессивная
Бит/(Пиксели*Кадры) : 0.078
Размер потока : 375 Мбайт (97%)
Цветовой диапазон : Limited
Основные цвета : BT.709
Характеристики трансфера : BT.709
Коэффициенты матрицы : BT.709
Codec configuration box : avcC

Аудио
Идентификатор : 2
Формат : AAC LC
Формат/Информация : Advanced Audio Codec Low Complexity
Идентификатор кодека : mp4a-40-2
Продолжительность : 13 м. 0 с.
Вид битрейта : Постоянный
Битрейт : 128 Кбит/сек
Каналы : 2 канала
ChannelLayout : L R
Частота : 44,1 КГц
Частота кадров : 43,066 кадра/сек (1024 SPF)
Метод сжатия : С потерями
Размер потока : 11,9 Мбайт (3%)
Default : Да
AlternateGroup/String : 1
 

admin

Мега активный
Команда форума
Администратор
Сообщения
718
Баллы
89
Название: Т/П «Тайны сказок с Анной Ковальчук» - «Игра» [Спас ТВ, 25.01.2020]
Жанр: Сказка
Канал: Спас ТВ
Дата выхода: 25.01.2020
Продолжительность: 00:13:00
  1. «Игра» - автор Марина Потоцкая. (Читает: Анна Ковальчук)
Общее
Полное имя : ТП «Тайны сказок с Анной Ковальчук» - «Игра» [Спас ТВ, 25.01.2020].mp4
Формат : MPEG-4
Профиль формата : Base Media
Идентификатор кодека : isom (isom/iso2/avc1/mp41)
Размер файла : 423 Мбайт
Продолжительность : 13 м. 0 с.
Общий поток : 4553 Кбит/сек
Программа кодирования : Lavf56.15.100

Видео
Идентификатор : 1
Формат : AVC
Формат/Информация : Advanced Video Codec
Профиль формата : High@L4
Настройки формата : CABAC / 3 Ref Frames
Параметр CABAC формата : Да
Параметр RefFrames формата : 3 кадра
Идентификатор кодека : avc1
Идентификатор кодека/Информация : Advanced Video Coding
Продолжительность : 13 м. 0 с.
Битрейт : 4420 Кбит/сек
Ширина : 1920 пикселей
Высота : 1080 пикселей
Соотношение сторон : 16:9
Режим частоты кадров : Постоянный
Частота кадров : 25,000 кадров/сек
Цветовое пространство : YUV
Субдискретизация насыщенности : 4:2:0
Битовая глубина : 8 бит
Тип развёртки : Прогрессивная
Бит/(Пиксели*Кадры) : 0.085
Размер потока : 411 Мбайт (97%)
Цветовой диапазон : Limited
Основные цвета : BT.709
Характеристики трансфера : BT.709
Коэффициенты матрицы : BT.709
Codec configuration box : avcC

Аудио
Идентификатор : 2
Формат : AAC LC
Формат/Информация : Advanced Audio Codec Low Complexity
Идентификатор кодека : mp4a-40-2
Продолжительность : 13 м. 0 с.
Вид битрейта : Постоянный
Битрейт : 128 Кбит/сек
Каналы : 2 канала
ChannelLayout : L R
Частота : 44,1 КГц
Частота кадров : 43,066 кадра/сек (1024 SPF)
Метод сжатия : С потерями
Размер потока : 11,9 Мбайт (3%)
Default : Да
AlternateGroup/String : 1
 
Последнее редактирование:

admin

Мега активный
Команда форума
Администратор
Сообщения
718
Баллы
89
Название: Т/П «Тайны сказок с Анной Ковальчук» - «Почему?» [Спас ТВ, 26.01.2020]
Жанр: Сказка
Канал: Спас ТВ
Дата выхода: 26.01.2020
Продолжительность: 00:13:00
  1. «Почему?» - автор Валентина Осеева. (Читает: Анна Ковальчук)
Общее
Полное имя : ТП «Тайны сказок с Анной Ковальчук» - «Почему» [Спас ТВ, 26.01.2020].mp4
Формат : MPEG-4
Профиль формата : Base Media
Идентификатор кодека : isom (isom/iso2/avc1/mp41)
Размер файла : 420 Мбайт
Продолжительность : 13 м. 0 с.
Общий поток : 4519 Кбит/сек
Программа кодирования : Lavf56.15.100

Видео
Идентификатор : 1
Формат : AVC
Формат/Информация : Advanced Video Codec
Профиль формата : High@L4
Настройки формата : CABAC / 3 Ref Frames
Параметр CABAC формата : Да
Параметр RefFrames формата : 3 кадра
Идентификатор кодека : avc1
Идентификатор кодека/Информация : Advanced Video Coding
Продолжительность : 13 м. 0 с.
Битрейт : 4385 Кбит/сек
Ширина : 1920 пикселей
Высота : 1080 пикселей
Соотношение сторон : 16:9
Режим частоты кадров : Постоянный
Частота кадров : 25,000 кадров/сек
Цветовое пространство : YUV
Субдискретизация насыщенности : 4:2:0
Битовая глубина : 8 бит
Тип развёртки : Прогрессивная
Бит/(Пиксели*Кадры) : 0.085
Размер потока : 408 Мбайт (97%)
Цветовой диапазон : Limited
Основные цвета : BT.709
Характеристики трансфера : BT.709
Коэффициенты матрицы : BT.709
Codec configuration box : avcC

Аудио
Идентификатор : 2
Формат : AAC LC
Формат/Информация : Advanced Audio Codec Low Complexity
Идентификатор кодека : mp4a-40-2
Продолжительность : 13 м. 0 с.
Вид битрейта : Постоянный
Битрейт : 128 Кбит/сек
Каналы : 2 канала
ChannelLayout : L R
Частота : 44,1 КГц
Частота кадров : 43,066 кадра/сек (1024 SPF)
Метод сжатия : С потерями
Размер потока : 11,9 Мбайт (3%)
Default : Да
AlternateGroup/String : 1
 
Последнее редактирование:

admin

Мега активный
Команда форума
Администратор
Сообщения
718
Баллы
89
Название: Т/П «Тайны сказок с Анной Ковальчук» - «Чудесная звёздочка» [Спас ТВ, 01.02.2020]
Жанр: Сказка
Канал: Спас ТВ
Дата выхода: 01.02.2020
Продолжительность: 00:13:00
  1. «Чудесная звёздочка» - автор Лидия Чарская. (Читает: Анна Ковальчук)
Общее
Полное имя : ТП «Тайны сказок с Анной Ковальчук» - «Чудесная звёздочка» [Спас ТВ, 01.02.2020].mp4
Формат : MPEG-4
Профиль формата : Base Media
Идентификатор кодека : isom (isom/iso2/avc1/mp41)
Размер файла : 416 Мбайт
Продолжительность : 13 м. 0 с.
Общий поток : 4471 Кбит/сек
Программа кодирования : Lavf58.33.100

Видео
Идентификатор : 1
Формат : AVC
Формат/Информация : Advanced Video Codec
Профиль формата : High@L4
Настройки формата : CABAC / 3 Ref Frames
Параметр CABAC формата : Да
Параметр RefFrames формата : 3 кадра
Идентификатор кодека : avc1
Идентификатор кодека/Информация : Advanced Video Coding
Продолжительность : 13 м. 0 с.
Битрейт : 4337 Кбит/сек
Ширина : 1920 пикселей
Высота : 1080 пикселей
Соотношение сторон : 16:9
Режим частоты кадров : Постоянный
Частота кадров : 25,000 кадров/сек
Цветовое пространство : YUV
Субдискретизация насыщенности : 4:2:0
Битовая глубина : 8 бит
Тип развёртки : Прогрессивная
Бит/(Пиксели*Кадры) : 0.084
Размер потока : 403 Мбайт (97%)
Заголовок : ISO Media file produced by Google Inc.
Цветовой диапазон : Limited
Основные цвета : BT.709
Характеристики трансфера : BT.709
Коэффициенты матрицы : BT.709
Codec configuration box : avcC

Аудио
Идентификатор : 2
Формат : AAC LC
Формат/Информация : Advanced Audio Codec Low Complexity
Идентификатор кодека : mp4a-40-2
Продолжительность : 13 м. 0 с.
Вид битрейта : Постоянный
Битрейт : 128 Кбит/сек
Каналы : 2 канала
ChannelLayout : L R
Частота : 44,1 КГц
Частота кадров : 43,066 кадра/сек (1024 SPF)
Метод сжатия : С потерями
Размер потока : 11,9 Мбайт (3%)
Заголовок : ISO Media file produced by Google Inc.
Default : Да
AlternateGroup/String : 1
 

admin

Мега активный
Команда форума
Администратор
Сообщения
718
Баллы
89
Название: Т/П «Тайны сказок с Анной Ковальчук» - «Старый мореход» [Спас ТВ, 02.02.2020]
Жанр: Сказка
Канал: Спас ТВ
Дата выхода: 02.02.2020
Продолжительность: 00:13:00
  1. «Старый мореход» - автор Виктор Драгунский. (Читает: Анна Ковальчук)
Общее
Полное имя : ТП «Тайны сказок с Анной Ковальчук» - «Старый мореход» [Спас ТВ, 02.02.2020].mp4
Формат : MPEG-4
Профиль формата : Base Media
Идентификатор кодека : isom (isom/iso2/avc1/mp41)
Размер файла : 416 Мбайт
Продолжительность : 13 м. 0 с.
Общий поток : 4474 Кбит/сек
Программа кодирования : Lavf58.33.100

Видео
Идентификатор : 1
Формат : AVC
Формат/Информация : Advanced Video Codec
Профиль формата : High@L4
Настройки формата : CABAC / 3 Ref Frames
Параметр CABAC формата : Да
Параметр RefFrames формата : 3 кадра
Идентификатор кодека : avc1
Идентификатор кодека/Информация : Advanced Video Coding
Продолжительность : 13 м. 0 с.
Битрейт : 4341 Кбит/сек
Ширина : 1920 пикселей
Высота : 1080 пикселей
Соотношение сторон : 16:9
Режим частоты кадров : Постоянный
Частота кадров : 25,000 кадров/сек
Цветовое пространство : YUV
Субдискретизация насыщенности : 4:2:0
Битовая глубина : 8 бит
Тип развёртки : Прогрессивная
Бит/(Пиксели*Кадры) : 0.084
Размер потока : 404 Мбайт (97%)
Заголовок : ISO Media file produced by Google Inc.
Цветовой диапазон : Limited
Основные цвета : BT.709
Характеристики трансфера : BT.709
Коэффициенты матрицы : BT.709
Codec configuration box : avcC

Аудио
Идентификатор : 2
Формат : AAC LC
Формат/Информация : Advanced Audio Codec Low Complexity
Идентификатор кодека : mp4a-40-2
Продолжительность : 13 м. 0 с.
Вид битрейта : Постоянный
Битрейт : 128 Кбит/сек
Каналы : 2 канала
ChannelLayout : L R
Частота : 44,1 КГц
Частота кадров : 43,066 кадра/сек (1024 SPF)
Метод сжатия : С потерями
Размер потока : 11,9 Мбайт (3%)
Заголовок : ISO Media file produced by Google Inc.
Default : Да
AlternateGroup/String : 1
 

admin

Мега активный
Команда форума
Администратор
Сообщения
718
Баллы
89
Название: Т/П «Тайны сказок с Анной Ковальчук» - «Острое поросячье заболевание» [Спас ТВ, 08.02.2020]
Жанр: Сказка
Канал: Спас ТВ
Дата выхода: 08.02.2020
Продолжительность: 00:13:00
  1. «Острое поросячье заболевание» - автор Марина Потоцкая. (Читает: Анна Ковальчук)
Общее
Полное имя : ТП «Тайны сказок с Анной Ковальчук» - «Острое поросячье заболевание» [Спас ТВ, 08.02.2020].mp4
Формат : MPEG-4
Профиль формата : Base Media
Идентификатор кодека : isom (isom/iso2/avc1/mp41)
Размер файла : 421 Мбайт
Продолжительность : 13 м. 0 с.
Общий поток : 4531 Кбит/сек
Программа кодирования : Lavf58.33.100

Видео
Идентификатор : 1
Формат : AVC
Формат/Информация : Advanced Video Codec
Профиль формата : High@L4
Настройки формата : CABAC / 3 Ref Frames
Параметр CABAC формата : Да
Параметр RefFrames формата : 3 кадра
Идентификатор кодека : avc1
Идентификатор кодека/Информация : Advanced Video Coding
Продолжительность : 13 м. 0 с.
Битрейт : 4398 Кбит/сек
Ширина : 1920 пикселей
Высота : 1080 пикселей
Соотношение сторон : 16:9
Режим частоты кадров : Постоянный
Частота кадров : 25,000 кадров/сек
Цветовое пространство : YUV
Субдискретизация насыщенности : 4:2:0
Битовая глубина : 8 бит
Тип развёртки : Прогрессивная
Бит/(Пиксели*Кадры) : 0.085
Размер потока : 409 Мбайт (97%)
Заголовок : ISO Media file produced by Google Inc.
Цветовой диапазон : Limited
Основные цвета : BT.709
Характеристики трансфера : BT.709
Коэффициенты матрицы : BT.709
Codec configuration box : avcC

Аудио
Идентификатор : 2
Формат : AAC LC
Формат/Информация : Advanced Audio Codec Low Complexity
Идентификатор кодека : mp4a-40-2
Продолжительность : 13 м. 0 с.
Вид битрейта : Постоянный
Битрейт : 128 Кбит/сек
Каналы : 2 канала
ChannelLayout : L R
Частота : 44,1 КГц
Частота кадров : 43,066 кадра/сек (1024 SPF)
Метод сжатия : С потерями
Размер потока : 11,9 Мбайт (3%)
Заголовок : ISO Media file produced by Google Inc.
Default : Да
AlternateGroup/String : 1
 

admin

Мега активный
Команда форума
Администратор
Сообщения
718
Баллы
89
Название: Т/П «Тайны сказок с Анной Ковальчук» - «Подружки» - «Ты бы смог без меня обойтись?» [Спас ТВ, 09.02.2020]
Жанр: Сказка
Канал: Спас ТВ
Дата выхода: 09.02.2020
Продолжительность: 00:13:00
  1. «Подружки» - автор Юлия Кузнецова. (Читает: Анна Ковальчук)
  2. «Ты бы смог без меня обойтись?» - автор Сергей Махотин. (Читает: Анна Ковальчук)
Общее
Полное имя : ТП «Тайны сказок с Анной Ковальчук» - «Подружки» - «Ты бы смог без меня обойтись» [Спас ТВ, 09.02.2020].mp4
Формат : MPEG-4
Профиль формата : Base Media
Идентификатор кодека : isom (isom/iso2/avc1/mp41)
Размер файла : 374 Мбайт
Продолжительность : 13 м. 0 с.
Общий поток : 4022 Кбит/сек
Программа кодирования : Lavf58.33.100

Видео
Идентификатор : 1
Формат : AVC
Формат/Информация : Advanced Video Codec
Профиль формата : High@L4
Настройки формата : CABAC / 3 Ref Frames
Параметр CABAC формата : Да
Параметр RefFrames формата : 3 кадра
Идентификатор кодека : avc1
Идентификатор кодека/Информация : Advanced Video Coding
Продолжительность : 13 м. 0 с.
Битрейт : 3888 Кбит/сек
Ширина : 1920 пикселей
Высота : 1080 пикселей
Соотношение сторон : 16:9
Режим частоты кадров : Постоянный
Частота кадров : 25,000 кадров/сек
Цветовое пространство : YUV
Субдискретизация насыщенности : 4:2:0
Битовая глубина : 8 бит
Тип развёртки : Прогрессивная
Бит/(Пиксели*Кадры) : 0.075
Размер потока : 362 Мбайт (97%)
Заголовок : ISO Media file produced by Google Inc.
Цветовой диапазон : Limited
Основные цвета : BT.709
Характеристики трансфера : BT.709
Коэффициенты матрицы : BT.709
Codec configuration box : avcC

Аудио
Идентификатор : 2
Формат : AAC LC
Формат/Информация : Advanced Audio Codec Low Complexity
Идентификатор кодека : mp4a-40-2
Продолжительность : 13 м. 0 с.
Вид битрейта : Постоянный
Битрейт : 128 Кбит/сек
Каналы : 2 канала
ChannelLayout : L R
Частота : 44,1 КГц
Частота кадров : 43,066 кадра/сек (1024 SPF)
Метод сжатия : С потерями
Размер потока : 11,9 Мбайт (3%)
Заголовок : ISO Media file produced by Google Inc.
Default : Да
AlternateGroup/String : 1
 

admin

Мега активный
Команда форума
Администратор
Сообщения
718
Баллы
89
Название: Т/П «Тайны сказок с Анной Ковальчук» - «Тук-тук-тук» [Спас ТВ, 15.02.2020]
Жанр: Сказка
Канал: Спас ТВ
Дата выхода: 15.02.2020
Продолжительность: 00:13:00
  1. «Тук-тук-тук» - автор Николай Носов. (Читает: Анна Ковальчук)
Общее
Полное имя : ТП «Тайны сказок с Анной Ковальчук» - «Тук-тук-тук» [Спас ТВ, 15.02.2020].mp4
Формат : MPEG-4
Профиль формата : Base Media
Идентификатор кодека : isom (isom/iso2/avc1/mp41)
Размер файла : 360 Мбайт
Продолжительность : 13 м. 0 с.
Общий поток : 3868 Кбит/сек
Программа кодирования : Lavf58.33.100

Видео
Идентификатор : 1
Формат : AVC
Формат/Информация : Advanced Video Codec
Профиль формата : High@L4
Настройки формата : CABAC / 3 Ref Frames
Параметр CABAC формата : Да
Параметр RefFrames формата : 3 кадра
Идентификатор кодека : avc1
Идентификатор кодека/Информация : Advanced Video Coding
Продолжительность : 13 м. 0 с.
Битрейт : 3835 Кбит/сек
Ширина : 1920 пикселей
Высота : 1080 пикселей
Соотношение сторон : 16:9
Режим частоты кадров : Постоянный
Частота кадров : 25,000 кадров/сек
Цветовое пространство : YUV
Субдискретизация насыщенности : 4:2:0
Битовая глубина : 8 бит
Тип развёртки : Прогрессивная
Бит/(Пиксели*Кадры) : 0.074
Размер потока : 357 Мбайт (99%)
Заголовок : ISO Media file produced by Google Inc.
Цветовой диапазон : Limited
Основные цвета : BT.709
Характеристики трансфера : BT.709
Коэффициенты матрицы : BT.709
Codec configuration box : avcC

Аудио
Идентификатор : 2
Формат : AAC LC SBR
Формат/Информация : Advanced Audio Codec Low Complexity with Spectral Band Replication
Коммерческое название : HE-AAC
Настройки формата : NBC
Идентификатор кодека : mp4a-40-5
Продолжительность : 13 м. 0 с.
Вид битрейта : Постоянный
Битрейт : 30,0 Кбит/сек
Каналы : 2 канала
ChannelLayout : L R
Частота : 44,1 КГц
Частота кадров : 21,533 кадра/сек (2048 SPF)
Метод сжатия : С потерями
Размер потока : 2,79 Мбайт (1%)
Заголовок : ISO Media file produced by Google Inc.
Default : Да
AlternateGroup/String : 1
 

admin

Мега активный
Команда форума
Администратор
Сообщения
718
Баллы
89
Название: Т/П «Тайны сказок с Анной Ковальчук» - «Наказание без преступления» [Спас ТВ, 16.02.2020]
Жанр: Сказка
Канал: Спас ТВ
Дата выхода: 16.02.2020
Продолжительность: 00:13:00
  1. «Наказание без преступления» - автор Дмитрий Сиротин. (Читает: Анна Ковальчук)
Общее
Полное имя : ТП «Тайны сказок с Анной Ковальчук» - «Наказание без преступления» [Спас ТВ, 16.02.2020].mp4
Формат : MPEG-4
Профиль формата : Base Media
Идентификатор кодека : isom (isom/iso2/avc1/mp41)
Размер файла : 379 Мбайт
Продолжительность : 13 м. 0 с.
Общий поток : 4073 Кбит/сек
Программа кодирования : Lavf58.33.100

Видео
Идентификатор : 1
Формат : AVC
Формат/Информация : Advanced Video Codec
Профиль формата : High@L4
Настройки формата : CABAC / 3 Ref Frames
Параметр CABAC формата : Да
Параметр RefFrames формата : 3 кадра
Идентификатор кодека : avc1
Идентификатор кодека/Информация : Advanced Video Coding
Продолжительность : 13 м. 0 с.
Битрейт : 4039 Кбит/сек
Ширина : 1920 пикселей
Высота : 1080 пикселей
Соотношение сторон : 16:9
Режим частоты кадров : Постоянный
Частота кадров : 25,000 кадров/сек
Цветовое пространство : YUV
Субдискретизация насыщенности : 4:2:0
Битовая глубина : 8 бит
Тип развёртки : Прогрессивная
Бит/(Пиксели*Кадры) : 0.078
Размер потока : 376 Мбайт (99%)
Заголовок : ISO Media file produced by Google Inc.
Цветовой диапазон : Limited
Основные цвета : BT.709
Характеристики трансфера : BT.709
Коэффициенты матрицы : BT.709
Codec configuration box : avcC

Аудио
Идентификатор : 2
Формат : AAC LC SBR
Формат/Информация : Advanced Audio Codec Low Complexity with Spectral Band Replication
Коммерческое название : HE-AAC
Настройки формата : NBC
Идентификатор кодека : mp4a-40-5
Продолжительность : 13 м. 0 с.
Вид битрейта : Постоянный
Битрейт : 30,0 Кбит/сек
Каналы : 2 канала
ChannelLayout : L R
Частота : 44,1 КГц
Частота кадров : 21,533 кадра/сек (2048 SPF)
Метод сжатия : С потерями
Размер потока : 2,79 Мбайт (1%)
Заголовок : ISO Media file produced by Google Inc.
Default : Да
AlternateGroup/String : 1
 


Сверху Снизу