• Уважаемые посетители и пользователи! В настоящее время у Анны Ковальчук в инстаграм 56,8 тыс. подписчиков! Как вы уже заметили на нашем форуме есть публикации, защищенные паролем. За каждые 150 000 подписчиков в инстаграм Анны Ковальчук мы будем открывать по 2 запароленные темы. Какие именно выберем на голосовании. Т.е. для разблокировки 2-х тем на данный момент нужно чтобы у Анны в инстаграм было не 56,8 тыс. подписчиков, а 150 000! Подписываемся :)

Видео Т/П «Тайны сказок с Анной Ковальчук» [Спас тв, spastv.ru]

admin

Мега активный
Команда форума
Администратор
Сообщения
756
Баллы
114
Название: Т/П «Тайны сказок с Анной Ковальчук» - «Надо подумать» - «Китёнок» [Спас ТВ, 15.03.2020]
Жанр: Сказка
Канал: Спас ТВ
Дата выхода: 15.03.2020
Продолжительность: 00:13:00
  1. «Надо подумать» - автор Геннадий Цыферов. (Читает: Анна Ковальчук)
  2. «Китёнок» - автор Геннадий Цыферов. (Читает: Анна Ковальчук)
Общее
Полное имя : ТП «Тайны сказок с Анной Ковальчук» - «Надо подумать» - «Китёнок» [Спас ТВ, 15.03.2020].mp4
Формат : MPEG-4
Профиль формата : Base Media
Идентификатор кодека : isom (isom/iso2/avc1/mp41)
Размер файла : 397 Мбайт
Продолжительность : 13 м. 0 с.
Общий поток : 4274 Кбит/сек
Программа кодирования : Lavf58.33.100

Видео
Идентификатор : 1
Формат : AVC
Формат/Информация : Advanced Video Codec
Профиль формата : High@L4
Настройки формата : CABAC / 3 Ref Frames
Параметр CABAC формата : Да
Параметр RefFrames формата : 3 кадра
Идентификатор кодека : avc1
Идентификатор кодека/Информация : Advanced Video Coding
Продолжительность : 13 м. 0 с.
Битрейт : 4141 Кбит/сек
Ширина : 1920 пикселей
Высота : 1080 пикселей
Соотношение сторон : 16:9
Режим частоты кадров : Постоянный
Частота кадров : 25,000 кадров/сек
Цветовое пространство : YUV
Субдискретизация насыщенности : 4:2:0
Битовая глубина : 8 бит
Тип развёртки : Прогрессивная
Бит/(Пиксели*Кадры) : 0.080
Размер потока : 385 Мбайт (97%)
Заголовок : ISO Media file produced by Google Inc.
Цветовой диапазон : Limited
Основные цвета : BT.709
Характеристики трансфера : BT.709
Коэффициенты матрицы : BT.709
Codec configuration box : avcC

Аудио
Идентификатор : 2
Формат : AAC LC
Формат/Информация : Advanced Audio Codec Low Complexity
Идентификатор кодека : mp4a-40-2
Продолжительность : 13 м. 0 с.
Вид битрейта : Постоянный
Битрейт : 128 Кбит/сек
Каналы : 2 канала
ChannelLayout : L R
Частота : 44,1 КГц
Частота кадров : 43,066 кадра/сек (1024 SPF)
Метод сжатия : С потерями
Размер потока : 11,9 Мбайт (3%)
Заголовок : ISO Media file produced by Google Inc.
Default : Да
AlternateGroup/String : 1
 

admin

Мега активный
Команда форума
Администратор
Сообщения
756
Баллы
114
Название: Т/П «Тайны сказок с Анной Ковальчук» - «Лесная кормушка» [Спас ТВ, 21.03.2020]
Жанр: Сказка
Канал: Спас ТВ
Дата выхода: 21.03.2020
Продолжительность: 00:13:00
  1. «Лесная кормушка» - автор Вера чаплина. (Читает: Анна Ковальчук)
Общее
Полное имя : ТП «Тайны сказок с Анной Ковальчук» - «Лесная кормушка» [Спас ТВ, 21.03.2020].mp4
Формат : MPEG-4
Профиль формата : Base Media
Идентификатор кодека : isom (isom/iso2/avc1/mp41)
Размер файла : 388 Мбайт
Продолжительность : 13 м. 0 с.
Общий поток : 4171 Кбит/сек
Программа кодирования : Lavf58.33.100

Видео
Идентификатор : 1
Формат : AVC
Формат/Информация : Advanced Video Codec
Профиль формата : High@L4
Настройки формата : CABAC / 3 Ref Frames
Параметр CABAC формата : Да
Параметр RefFrames формата : 3 кадра
Идентификатор кодека : avc1
Идентификатор кодека/Информация : Advanced Video Coding
Продолжительность : 13 м. 0 с.
Битрейт : 4037 Кбит/сек
Ширина : 1920 пикселей
Высота : 1080 пикселей
Соотношение сторон : 16:9
Режим частоты кадров : Постоянный
Частота кадров : 25,000 кадров/сек
Цветовое пространство : YUV
Субдискретизация насыщенности : 4:2:0
Битовая глубина : 8 бит
Тип развёртки : Прогрессивная
Бит/(Пиксели*Кадры) : 0.078
Размер потока : 375 Мбайт (97%)
Заголовок : ISO Media file produced by Google Inc.
Цветовой диапазон : Limited
Основные цвета : BT.709
Характеристики трансфера : BT.709
Коэффициенты матрицы : BT.709
Codec configuration box : avcC

Аудио
Идентификатор : 2
Формат : AAC LC
Формат/Информация : Advanced Audio Codec Low Complexity
Идентификатор кодека : mp4a-40-2
Продолжительность : 13 м. 0 с.
Вид битрейта : Постоянный
Битрейт : 128 Кбит/сек
Каналы : 2 канала
ChannelLayout : L R
Частота : 44,1 КГц
Частота кадров : 43,066 кадра/сек (1024 SPF)
Метод сжатия : С потерями
Размер потока : 11,9 Мбайт (3%)
Заголовок : ISO Media file produced by Google Inc.
Default : Да
AlternateGroup/String : 1
 

admin

Мега активный
Команда форума
Администратор
Сообщения
756
Баллы
114
Название: Т/П «Тайны сказок с Анной Ковальчук» - «Рыцарь Вася» [Спас ТВ, 22.03.2020]
Жанр: Сказка
Канал: Спас ТВ
Дата выхода: 22.03.2020
Продолжительность: 00:13:00
  1. «Рыцарь Вася» - автор Юрий Яковлев. (Читает: Анна Ковальчук)
Общее
Полное имя : ТП «Тайны сказок с Анной Ковальчук» - «Рыцарь Вася» [Спас ТВ, 22.03.2020].mp4
Формат : MPEG-4
Профиль формата : Base Media
Идентификатор кодека : isom (isom/iso2/avc1/mp41)
Размер файла : 358 Мбайт
Продолжительность : 13 м. 0 с.
Общий поток : 3852 Кбит/сек
Программа кодирования : Lavf58.33.100

Видео
Идентификатор : 1
Формат : AVC
Формат/Информация : Advanced Video Codec
Профиль формата : High@L4
Настройки формата : CABAC / 3 Ref Frames
Параметр CABAC формата : Да
Параметр RefFrames формата : 3 кадра
Идентификатор кодека : avc1
Идентификатор кодека/Информация : Advanced Video Coding
Продолжительность : 13 м. 0 с.
Битрейт : 3719 Кбит/сек
Ширина : 1920 пикселей
Высота : 1080 пикселей
Соотношение сторон : 16:9
Режим частоты кадров : Постоянный
Частота кадров : 25,000 кадров/сек
Цветовое пространство : YUV
Субдискретизация насыщенности : 4:2:0
Битовая глубина : 8 бит
Тип развёртки : Прогрессивная
Бит/(Пиксели*Кадры) : 0.072
Размер потока : 346 Мбайт (97%)
Заголовок : ISO Media file produced by Google Inc.
Цветовой диапазон : Limited
Основные цвета : BT.709
Характеристики трансфера : BT.709
Коэффициенты матрицы : BT.709
Codec configuration box : avcC

Аудио
Идентификатор : 2
Формат : AAC LC
Формат/Информация : Advanced Audio Codec Low Complexity
Идентификатор кодека : mp4a-40-2
Продолжительность : 13 м. 0 с.
Вид битрейта : Постоянный
Битрейт : 128 Кбит/сек
Каналы : 2 канала
ChannelLayout : L R
Частота : 44,1 КГц
Частота кадров : 43,066 кадра/сек (1024 SPF)
Метод сжатия : С потерями
Размер потока : 11,9 Мбайт (3%)
Заголовок : ISO Media file produced by Google Inc.
Default : Да
AlternateGroup/String : 1
 

admin

Мега активный
Команда форума
Администратор
Сообщения
756
Баллы
114
Название: Т/П «Тайны сказок с Анной Ковальчук» - «Волшебные очки» - «Зеркало» - «Попугайчик»[Спас ТВ, 28.03.2020]
Жанр: Сказка
Канал: Спас ТВ
Дата выхода: 28.03.2020
Продолжительность: 00:13:00
  1. «Волшебные очки» - автор Борис Ганаго. (Читает: Анна Ковальчук)
  2. «Зеркало» - автор Борис Ганаго. (Читает: Анна Ковальчук)
  3. «Попугайчик» - автор Борис Ганаго. (Читает: Анна Ковальчук)
 

admin

Мега активный
Команда форума
Администратор
Сообщения
756
Баллы
114
Название: Т/П «Тайны сказок с Анной Ковальчук» - «Совесть заговорила» [Спас ТВ, 29.03.2020]
Жанр: Сказка
Канал: Спас ТВ
Дата выхода: 29.03.2020
Продолжительность: 00:13:00
  1. «Совесть заговорила» - автор Нина Артюхова. (Читает: Анна Ковальчук)
 


Сверху Снизу