• Уважаемые посетители! По тех. причинам регистрация отключена!

Видео Т/П «Утро России» [Россия-1, vgtrk.com]

admin

Супер активный
Команда форума
Сообщения
400
Симпатии
7
Баллы
34
#1

Название: Т/П «Утро России» «Тайны следствия-17» [Россия-1, vgtrk.com]
Жанр: Интервью
Гость: Анна Ковальчук
Канал: Россия1
Дата выхода: 30.11.2017
General
Complete name : ТП «Утро России» «Тайны следствия-17» [Россия-1, vgtrk.com] [30.11.2017].mp4
Format : MPEG-4
Codec ID : M4V (isom/avc1/mp42)
File size : 68.7 MiB
Duration : 4 min
Overall bit rate mode : Variable
Overall bit rate : 1 941 kb/s
Encoded date : UTC 2017-11-30 05:41:31
Tagged date : UTC 2017-11-30 05:41:31

Video
ID : 1
Format : AVC
Format/Info : Advanced Video Codec
Format profile : High@L3.1
Format settings, CABAC : Yes
Format settings, ReFrames : 2 frames
Codec ID : avc1
Codec ID/Info : Advanced Video Coding
Duration : 4 min
Bit rate mode : Variable
Bit rate : 1 810 kb/s
Maximum bit rate : 2 400 kb/s
Width : 1 280 pixels
Height : 720 pixels
Display aspect ratio : 16:9
Frame rate mode : Constant
Frame rate : 25.000 FPS
Color space : YUV
Chroma subsampling : 4:2:0
Bit depth : 8 bits
Scan type : Progressive
Bits/(Pixel*Frame) : 0.079
Stream size : 64.0 MiB (93%)
Encoded date : UTC 2017-11-30 05:41:31
Tagged date : UTC 2017-11-30 05:41:31

Audio
ID : 2
Format : AAC
Format/Info : Advanced Audio Codec
Format profile : LC
Codec ID : 40
Duration : 4 min
Bit rate mode : Constant
Bit rate : 128 kb/s
Channel(s) : 2 channels
Channel positions : Front: L R
Sampling rate : 48.0 kHz
Frame rate : 46.875 FPS (1024 spf)
Compression mode : Lossy
Stream size : 4.44 MiB (6%)
Encoded date : UTC 2017-11-30 05:41:31
Tagged date : UTC 2017-11-30 05:41:31
Для просмотра содержимого вам необходимо авторизоваться.
 
Последнее редактирование:

admin

Супер активный
Команда форума
Сообщения
400
Симпатии
7
Баллы
34
#2

Название: Т/П «Утро России» «Тайны следствия-17» [Россия-1, vgtrk.com]
Жанр: Интервью, Репортаж
Канал: Россия1
Дата выхода: 11.12.2017
General
Complete name : ТП «Утро России» «Тайны следствия-17» [Россия-1, vgtrk.com] [11.12.2017].mp4
Format : MPEG-4
Codec ID : M4V (isom/avc1/mp42)
File size : 39.3 MiB
Duration : 2 min
Overall bit rate mode : Variable
Overall bit rate : 1 947 kb/s
Encoded date : UTC 2017-12-11 05:19:13
Tagged date : UTC 2017-12-11 05:19:13

Video
ID : 1
Format : AVC
Format/Info : Advanced Video Codec
Format profile : High@L3.1
Format settings, CABAC : Yes
Format settings, ReFrames : 2 frames
Format settings, GOP : M=3, N=60
Codec ID : avc1
Codec ID/Info : Advanced Video Coding
Duration : 2 min
Bit rate mode : Variable
Bit rate : 1 816 kb/s
Maximum bit rate : 2 400 kb/s
Width : 1 280 pixels
Height : 720 pixels
Display aspect ratio : 16:9
Frame rate mode : Constant
Frame rate : 25.000 FPS
Color space : YUV
Chroma subsampling : 4:2:0
Bit depth : 8 bits
Scan type : Progressive
Bits/(Pixel*Frame) : 0.079
Stream size : 36.7 MiB (93%)
Encoded date : UTC 2017-12-11 05:19:13
Tagged date : UTC 2017-12-11 05:19:13

Audio
ID : 2
Format : AAC
Format/Info : Advanced Audio Codec
Format profile : LC
Codec ID : 40
Duration : 2 min
Bit rate mode : Variable
Bit rate : 128 kb/s
Maximum bit rate : 131 kb/s
Channel(s) : 2 channels
Channel positions : Front: L R
Sampling rate : 48.0 kHz
Frame rate : 46.875 FPS (1024 spf)
Compression mode : Lossy
Stream size : 2.53 MiB (6%)
Encoded date : UTC 2017-12-11 05:19:13
Tagged date : UTC 2017-12-11 05:19:13
Для просмотра содержимого вам необходимо авторизоваться.
 
Последнее редактирование:

admin

Супер активный
Команда форума
Сообщения
400
Симпатии
7
Баллы
34
#3

Название: Т/П «Утро России» «Годунов» [Россия-1, vgtrk.com]
Жанр: Интервью, Репортаж
Канал: Россия1
Дата выхода: 03.08.2018
General
Complete name : ТП «Утро России» «Годунов» [Россия-1, vgtrk.com].mp4
Format : MPEG-4
Codec ID : M4V (isom/avc1/mp42)
File size : 46.9 MiB
Duration : 3 min
Overall bit rate mode : Variable
Overall bit rate : 1 945 kb/s
Encoded date : UTC 2018-08-03 05:49:35
Tagged date : UTC 2018-08-03 05:49:35

Video
ID : 1
Format : AVC
Format/Info : Advanced Video Codec
Format profile : High@L3.1
Format settings, CABAC : Yes
Format settings, ReFrames : 2 frames
Codec ID : avc1
Codec ID/Info : Advanced Video Coding
Duration : 3 min
Bit rate mode : Variable
Bit rate : 1 814 kb/s
Maximum bit rate : 2 400 kb/s
Width : 1 280 pixels
Height : 720 pixels
Display aspect ratio : 16:9
Frame rate mode : Constant
Frame rate : 25.000 FPS
Color space : YUV
Chroma subsampling : 4:2:0
Bit depth : 8 bits
Scan type : Progressive
Bits/(Pixel*Frame) : 0.079
Stream size : 43.8 MiB (93%)
Encoded date : UTC 2018-08-03 05:49:35
Tagged date : UTC 2018-08-03 05:49:35

Audio
ID : 2
Format : AAC
Format/Info : Advanced Audio Codec
Format profile : LC
Codec ID : 40
Duration : 3 min
Bit rate mode : Variable
Bit rate : 128 kb/s
Maximum bit rate : 131 kb/s
Channel(s) : 2 channels
Channel positions : Front: L R
Sampling rate : 48.0 kHz
Frame rate : 46.875 FPS (1024 spf)
Compression mode : Lossy
Stream size : 3.03 MiB (6%)
Encoded date : UTC 2018-08-03 05:49:35
Tagged date : UTC 2018-08-03 05:49:35
Для просмотра содержимого вам необходимо авторизоваться.
 
Вверх Снизу