• Уважаемые посетители! По тех. причинам регистрация отключена!

Видео Т/П «Вечерний Ургант» - В гостях А. Ковальчук и А. Макеева. [27.05.2015 - Выпуск 480] [Первый канал]

admin

Супер активный
Команда форума
Сообщения
400
Симпатии
7
Баллы
34
#1

Название: Т/П «Вечерний Ургант» - В гостях А. Ковальчук и А. Макеева. [27.05.2015 - Выпуск 480] [Первый канал]
Жанр: Интервью, Телешоу, Юмор
Гость: Анна. Ковальчук и Анастасия Макеева
Ведущий: Иван Ургант
Канал: Первый канал, Москва
Дата выхода: 27.05.2015 - Выпуск 480
General
Complete name : ТП «Вечерний Ургант» - В гостях А. Ковальчук и А. Макеева. [27.05.2015 - Выпуск 480] [ОРТ].mp4
Format : MPEG-4
Format profile : Base Media
Codec ID : isom (isom/iso2/avc1/mp41)
File size : 738 MiB
Duration : 15 min
Overall bit rate mode : Variable
Overall bit rate : 6 625 kb/s
Encoded date : UTC 1970-01-01 00:00:00
Tagged date : UTC 1970-01-01 00:00:00
Writing application : Lavf50.4.0

Video
ID : 1
Format : AVC
Format/Info : Advanced Video Codec
Format profile : Main@L5.1
Format settings, CABAC : Yes
Format settings, ReFrames : 1 frame
Format settings, GOP : M=1, N=32
Codec ID : avc1
Codec ID/Info : Advanced Video Coding
Duration : 15 min
Bit rate : 6 468 kb/s
Width : 1 280 pixels
Height : 720 pixels
Display aspect ratio : 16:9
Frame rate mode : Constant
Frame rate : 30.000 FPS
Color space : YUV
Chroma subsampling : 4:2:0
Bit depth : 8 bits
Scan type : Progressive
Bits/(Pixel*Frame) : 0.234
Stream size : 721 MiB (98%)
Encoded date : UTC 1970-01-01 00:00:00
Tagged date : UTC 1970-01-01 00:00:00

Audio
ID : 2
Format : AAC
Format/Info : Advanced Audio Codec
Format profile : LC
Codec ID : 40
Duration : 15 min
Bit rate mode : Variable
Bit rate : 152 kb/s
Channel(s) : 2 channels
Channel positions : Front: L R
Sampling rate : 44.1 kHz
Frame rate : 43.066 FPS (1024 spf)
Compression mode : Lossy
Stream size : 16.9 MiB (2%)
Encoded date : UTC 1970-01-01 00:00:00
Tagged date : UTC 1970-01-01 00:00:00
Для просмотра содержимого вам необходимо авторизоваться.
 
Последнее редактирование:
Вверх Снизу