• Уважаемые посетители! По тех. причинам регистрация отключена!

Видео Т/П «Вести в субботу» [Россия-1, vgtrk.com]

admin

Супер активный
Команда форума
Сообщения
402
Симпатии
7
Баллы
34
#1

Название: Т/П «Вести в субботу» [Россия-1, vgtrk.com] [09.12.2017]
Жанр: Интервью
Гость: Анна Ковальчук
Канал: Россия1
Дата выхода: 09.12.2017
General
Complete name : ТП «Вести в субботу» [Россия-1, vgtrk.com] [09.12.2017].mp4
Format : MPEG-4
Format profile : Base Media / Version 2
Codec ID : mp42 (isom)
File size : 69.1 MiB
Duration : 4 min
Overall bit rate mode : Variable
Overall bit rate : 1 935 kb/s
Encoded date : UTC 2017-12-09 18:35:23
Tagged date : UTC 2017-12-09 18:35:23

Video
ID : 1
Format : AVC
Format/Info : Advanced Video Codec
Format profile : High@L3.1
Format settings, CABAC : Yes
Format settings, ReFrames : 2 frames
Codec ID : avc1
Codec ID/Info : Advanced Video Coding
Duration : 4 min
Bit rate mode : Constant
Bit rate : 1 800 kb/s
Width : 1 280 pixels
Height : 720 pixels
Display aspect ratio : 16:9
Frame rate mode : Constant
Frame rate : 25.000 FPS
Standard : PAL
Color space : YUV
Chroma subsampling : 4:2:0
Bit depth : 8 bits
Scan type : Progressive
Bits/(Pixel*Frame) : 0.078
Stream size : 64.5 MiB (93%)
Language : English
Encoded date : UTC 2017-12-09 18:35:23
Tagged date : UTC 2017-12-09 18:35:23
Color range : Limited
Color primaries : BT.709
Transfer characteristics : BT.709
Matrix coefficients : BT.709

Audio
ID : 2
Format : AAC
Format/Info : Advanced Audio Codec
Format profile : LC
Codec ID : 40
Duration : 4 min
Bit rate mode : Variable
Bit rate : 125 kb/s
Maximum bit rate : 280 kb/s
Channel(s) : 2 channels
Channel positions : Front: L R
Sampling rate : 48.0 kHz
Frame rate : 46.875 FPS (1024 spf)
Compression mode : Lossy
Stream size : 4.48 MiB (6%)
Language : English
Encoded date : UTC 2017-12-09 18:35:23
Tagged date : UTC 2017-12-09 18:35:23
Для просмотра содержимого вам необходимо авторизоваться.
 
Последнее редактирование:
Вверх Снизу