• Уважаемые посетители! По тех. причинам регистрация отключена!

Видео Тайны следствия 13 [Кадры из сериала]

admin

Супер активный
Команда форума
Сообщения
402
Симпатии
7
Баллы
34
#1

Оригинальное название: сериал "Тайны следствия - 13" - Маньяк (2013) WEB-DL [Россия1]
Жанр: Детектив
Продолжительность: 00:01:08
Качество: mkv
Разрешение: 1280x720
Размер: 22,5 mb
General
Unique ID : 223230432386011184066963106975384300532 (0xA7F09E0F7041F55D866EA47DE2436BF4)
Complete name : Tayny.Sledstviya-13.(05.seriya.iz.20).mkv
Format : Matroska
Format version : Version 4 / Version 2
File size : 22.5 MiB
Duration : 1 min
Overall bit rate : 2 775 kb/s
Encoded date : UTC 2016-12-21 14:30:53
Writing application : mkvmerge v6.0.0 ('Coming Up For Air') built on Jan 20 2013 09:52:00
Writing library : libebml v1.3.0 + libmatroska v1.4.0

Video
ID : 1
Format : AVC
Format/Info : Advanced Video Codec
Format profile : High@L4
Format settings, CABAC : Yes
Format settings, ReFrames : 3 frames
Codec ID : V_MPEG4/ISO/AVC
Duration : 1 min
Bit rate : 2 528 kb/s
Width : 1 280 pixels
Height : 720 pixels
Display aspect ratio : 16:9
Frame rate mode : Constant
Frame rate : 25.000 FPS
Color space : YUV
Chroma subsampling : 4:2:0
Bit depth : 8 bits
Scan type : Progressive
Bits/(Pixel*Frame) : 0.110
Stream size : 20.5 MiB (91%)
Default : Yes
Forced : Yes

Audio
ID : 2
Format : AC-3
Format/Info : Audio Coding 3
Mode extension : CM (complete main)
Format settings, Endianness : Big
Codec ID : A_AC3
Duration : 1 min
Bit rate mode : Constant
Bit rate : 192 kb/s
Channel(s) : 2 channels
Channel positions : Front: L R
Sampling rate : 48.0 kHz
Frame rate : 31.250 FPS (1536 spf)
Compression mode : Lossy
Delay relative to video : 8 ms
Stream size : 1.56 MiB (7%)
Language : Russian
Default : Yes
Forced : Yes
Для просмотра содержимого вам необходимо авторизоваться.
 
Последнее редактирование:

admin

Супер активный
Команда форума
Сообщения
402
Симпатии
7
Баллы
34
#2

Оригинальное название: сериал "Тайны следствия - 13" - Ледовый месяц (2013) WEB-DL [Россия1]
Жанр: Детектив
Продолжительность: 00:02:08
Качество: mkv
Разрешение: 1280x720
Размер: 42,6 mb
General
Unique ID : 246245841637735212103431809296591692099 (0xB9413958A8F9A908B8D188B5F2CB2143)
Complete name : Tayny.Sledstviya-13.(13.seriya.iz.20).mkv
Format : Matroska
Format version : Version 4 / Version 2
File size : 42.7 MiB
Duration : 2 min
Overall bit rate : 2 789 kb/s
Encoded date : UTC 2016-12-21 15:11:35
Writing application : mkvmerge v6.0.0 ('Coming Up For Air') built on Jan 20 2013 09:52:00
Writing library : libebml v1.3.0 + libmatroska v1.4.0

Video
ID : 1
Format : AVC
Format/Info : Advanced Video Codec
Format profile : High@L4
Format settings, CABAC : Yes
Format settings, ReFrames : 3 frames
Codec ID : V_MPEG4/ISO/AVC
Duration : 2 min
Bit rate : 2 541 kb/s
Width : 1 280 pixels
Height : 720 pixels
Display aspect ratio : 16:9
Frame rate mode : Constant
Frame rate : 25.000 FPS
Color space : YUV
Chroma subsampling : 4:2:0
Bit depth : 8 bits
Scan type : Progressive
Bits/(Pixel*Frame) : 0.110
Stream size : 38.9 MiB (91%)
Default : Yes
Forced : Yes

Audio
ID : 2
Format : AC-3
Format/Info : Audio Coding 3
Mode extension : CM (complete main)
Format settings, Endianness : Big
Codec ID : A_AC3
Duration : 2 min
Bit rate mode : Constant
Bit rate : 192 kb/s
Channel(s) : 2 channels
Channel positions : Front: L R
Sampling rate : 48.0 kHz
Frame rate : 31.250 FPS (1536 spf)
Compression mode : Lossy
Delay relative to video : 24 ms
Stream size : 2.94 MiB (7%)
Language : Russian
Default : Yes
Forced : Yes
Для просмотра содержимого вам необходимо авторизоваться.
 
Последнее редактирование:

admin

Супер активный
Команда форума
Сообщения
402
Симпатии
7
Баллы
34
#3

Оригинальное название: сериал "Тайны следствия - 13" - Маракасы (2013) WEB-DL [Россия1]
Жанр: Детектив
Продолжительность: 00:02:12
Качество: mkv
Разрешение: 1280x720
Размер: 35,3 mb
General
Unique ID : 177462384731168904018330330624865090589 (0x8582031763295C089A44DCA80B8C3C1D)
Complete name : Tayny.Sledstviya-13.(17.seriya.iz.20).mkv
Format : Matroska
Format version : Version 4 / Version 2
File size : 35.3 MiB
Duration : 2 min
Overall bit rate : 2 238 kb/s
Encoded date : UTC 2016-12-21 18:26:13
Writing application : mkvmerge v6.0.0 ('Coming Up For Air') built on Jan 20 2013 09:52:00
Writing library : libebml v1.3.0 + libmatroska v1.4.0

Video
ID : 1
Format : AVC
Format/Info : Advanced Video Codec
Format profile : High@L4
Format settings, CABAC : Yes
Format settings, ReFrames : 3 frames
Codec ID : V_MPEG4/ISO/AVC
Duration : 2 min
Bit rate : 2 001 kb/s
Width : 1 280 pixels
Height : 720 pixels
Display aspect ratio : 16:9
Frame rate mode : Constant
Frame rate : 25.000 FPS
Color space : YUV
Chroma subsampling : 4:2:0
Bit depth : 8 bits
Scan type : Progressive
Bits/(Pixel*Frame) : 0.087
Stream size : 31.6 MiB (89%)
Default : Yes
Forced : Yes

Audio
ID : 2
Format : AC-3
Format/Info : Audio Coding 3
Mode extension : CM (complete main)
Format settings, Endianness : Big
Codec ID : A_AC3
Duration : 2 min
Bit rate mode : Constant
Bit rate : 192 kb/s
Channel(s) : 2 channels
Channel positions : Front: L R
Sampling rate : 48.0 kHz
Frame rate : 31.250 FPS (1536 spf)
Compression mode : Lossy
Delay relative to video : 16 ms
Stream size : 3.03 MiB (9%)
Language : Russian
Default : Yes
Forced : Yes
Для просмотра содержимого вам необходимо авторизоваться.
 
Последнее редактирование:
Вверх Снизу