• Уважаемые посетители! По тех. причинам регистрация отключена!

Видео Тайны следствия 15 [Кадры из сериала]

admin

Супер активный
Команда форума
Сообщения
402
Симпатии
7
Баллы
34
#1

Оригинальное название: сериал "Тайны следствия - 15" - Короткое замыкание (2015) WEB-DL [Россия1]
Жанр: Детектив
Продолжительность: 00:00:39
Качество: mkv
Разрешение: 1280x720
Размер: 22,6 mb
General
Unique ID : 233129466382857854972189064209505263060 (0xAF631A1E26CCD561BD26317E79BD1DD4)
Complete name : Tajny.sledstvija-15.(07.seriya).2015.HDTVRip.(720p).mkv
Format : Matroska
Format version : Version 4 / Version 2
File size : 22.7 MiB
Duration : 39 s 80 ms
Overall bit rate : 4 867 kb/s
Encoded date : UTC 2017-06-12 16:53:06
Writing application : mkvmerge v6.0.0 ('Coming Up For Air') built on Jan 20 2013 09:52:00
Writing library : libebml v1.3.0 + libmatroska v1.4.0

Video
ID : 1
Format : AVC
Format/Info : Advanced Video Codec
Format profile : High@L4.1
Format settings, CABAC : Yes
Format settings, ReFrames : 9 frames
Codec ID : V_MPEG4/ISO/AVC
Duration : 39 s 80 ms
Bit rate : 4 578 kb/s
Width : 1 280 pixels
Height : 720 pixels
Display aspect ratio : 16:9
Frame rate mode : Constant
Frame rate : 25.000 FPS
Color space : YUV
Chroma subsampling : 4:2:0
Bit depth : 8 bits
Scan type : Progressive
Bits/(Pixel*Frame) : 0.199
Stream size : 21.3 MiB (94%)
Default : Yes
Forced : No
Color range : Limited
Color primaries : BT.709
Transfer characteristics : BT.709
Matrix coefficients : BT.709

Audio
ID : 2
Format : AC-3
Format/Info : Audio Coding 3
Mode extension : CM (complete main)
Format settings, Endianness : Big
Codec ID : A_AC3
Duration : 39 s 80 ms
Bit rate mode : Constant
Bit rate : 192 kb/s
Channel(s) : 2 channels
Channel positions : Front: L R
Sampling rate : 48.0 kHz
Frame rate : 31.250 FPS (1536 spf)
Compression mode : Lossy
Delay relative to video : 8 ms
Stream size : 916 KiB (4%)
Default : Yes
Forced : No
Для просмотра содержимого вам необходимо авторизоваться.
 
Последнее редактирование:
Вверх Снизу