• У вас есть интересные материалы (фото, видео, статьи и т.п.), и вы хотите, чтобы они были опубликованы у нас на форуме? Можете отправить их на наши @-mail адреса: support@anna-kovalchuk.h1n.ru или deutschgrundkurs@ya.ru Важно! Не забудьте указать свое имя или никнейм. Спасибо!!

Видео Тайны следствия «Прошлый век» «19 век» [Кадры из сериала и видео со съёмочных площадок]


mrcelebs

Проверенный
Пользователь
Сообщения
36
Баллы
11

Оригинальное название: Тайны следствия «Прошлый век» «19 век» (анонс) - 01 [отрывок]
Жанр:
Анонс
Продолжительность: 00:00:26
Качество: mp4
Разрешение: 640x800
Размер: 8,70 mb
General
Complete name : Тайны следствия 18 (анонс) - 01.mp4
Format : MPEG-4
Format profile : Base Media
Codec ID : isom (isom/iso2/avc1/mp41)
File size : 8.71 MiB
Duration : 26 s 198 ms
Overall bit rate mode : Variable
Overall bit rate : 2 789 kb/s

Video
ID : 1
Format : AVC
Format/Info : Advanced Video Codec
Format profile : Main@L3.1
Format settings, CABAC : Yes
Format settings, ReFrames : 3 frames
Codec ID : avc1
Codec ID/Info : Advanced Video Coding
Duration : 26 s 167 ms
Bit rate : 2 683 kb/s
Width : 640 pixels
Height : 800 pixels
Display aspect ratio : 0.800
Frame rate mode : Constant
Frame rate : 30.000 FPS
Color space : YUV
Chroma subsampling : 4:2:0
Bit depth : 8 bits
Scan type : Progressive
Bits/(Pixel*Frame) : 0.175
Stream size : 8.37 MiB (96%)
Writing library : x264 core 142 r2455 021c0dc
Encoding settings : cabac=1 / ref=3 / deblock=1:0:0 / analyse=0x1:0x111 / me=hex / subme=7 / psy=1 / psy_rd=1.00:0.00 / mixed_ref=1 / me_range=16 / chroma_me=1 / trellis=1 / 8x8dct=0 / cqm=0 / deadzone=21,11 / fast_pskip=1 / chroma_qp_offset=-4 / threads=4 / lookahead_threads=1 / sliced_threads=0 / nr=0 / decimate=1 / interlaced=0 / bluray_compat=0 / constrained_intra=0 / bframes=0 / weightp=2 / keyint=250 / keyint_min=25 / scenecut=40 / intra_refresh=0 / rc=crf / mbtree=0 / crf=18.0 / qcomp=0.60 / qpmin=4 / qpmax=69 / qpstep=4 / ip_ratio=1.40 / aq=1:1.00

Audio
ID : 2
Format : AAC
Format/Info : Advanced Audio Codec
Format profile : LC
Codec ID : 40
Duration : 26 s 198 ms
Bit rate mode : Variable
Bit rate : 106 kb/s
Maximum bit rate : 192 kb/s
Channel(s) : 2 channels
Channel positions : Front: L R
Sampling rate : 48.0 kHz
Frame rate : 46.875 FPS (1024 spf)
Compression mode : Lossy
Stream size : 338 KiB (4%)
Default : Yes
Alternate group : 1
Для просмотра скрытого содержимого необходимо Войти или Зарегистрироваться.
 
Последнее редактирование модератором:

admin

Мега активный
Команда форума
Администратор
Сообщения
718
Баллы
89

Оригинальное название: Тайны следствия «Прошлый век» «19 век» (анонс) - 02 [отрывок]
Жанр:
Анонс
Продолжительность: 00:01:18
Качество: mp4
Разрешение: 640x800
Размер: 16,30 mb
General
Complete name : Тайны следствия 18 (анонс) - 02.mp4
Format : MPEG-4
Format profile : Base Media
Codec ID : isom (isom/iso2/avc1/mp41)
File size : 16.3 MiB
Duration : 1 min
Overall bit rate mode : Variable
Overall bit rate : 1 717 kb/s
Writing application : Lavf55.33.100

Video
ID : 1
Format : AVC
Format/Info : Advanced Video Codec
Format profile : Main@L3
Format settings, CABAC : Yes
Format settings, ReFrames : 3 frames
Format settings, GOP : N=1
Codec ID : avc1
Codec ID/Info : Advanced Video Coding
Duration : 1 min
Bit rate : 1 609 kb/s
Width : 640 pixels
Height : 640 pixels
Display aspect ratio : 1.000
Frame rate mode : Variable
Frame rate : 30.000 FPS
Color space : YUV
Chroma subsampling : 4:2:0
Bit depth : 8 bits
Scan type : Progressive
Bits/(Pixel*Frame) : 0.131
Stream size : 15.3 MiB (94%)
Writing library : x264 core 142 r2455 021c0dc
Encoding settings : cabac=1 / ref=3 / deblock=1:0:0 / analyse=0x1:0x111 / me=hex / subme=7 / psy=1 / psy_rd=1.00:0.00 / mixed_ref=1 / me_range=16 / chroma_me=1 / trellis=1 / 8x8dct=0 / cqm=0 / deadzone=21,11 / fast_pskip=1 / chroma_qp_offset=-4 / threads=4 / lookahead_threads=1 / sliced_threads=0 / nr=0 / decimate=1 / interlaced=0 / bluray_compat=0 / constrained_intra=0 / bframes=0 / weightp=2 / keyint=250 / keyint_min=25 / scenecut=40 / intra_refresh=0 / rc_lookahead=0 / rc=crf / mbtree=0 / crf=18.0 / qcomp=0.60 / qpmin=4 / qpmax=69 / qpstep=4 / vbv_maxrate=10000 / vbv_bufsize=10000 / crf_max=0.0 / nal_hrd=none / filler=0 / ip_ratio=1.40 / aq=1:1.00

Audio
ID : 2
Format : AAC
Format/Info : Advanced Audio Codec
Format profile : LC
Codec ID : 40
Duration : 1 min
Bit rate mode : Variable
Bit rate : 103 kb/s
Maximum bit rate : 192 kb/s
Channel(s) : 2 channels
Channel positions : Front: L R
Sampling rate : 48.0 kHz
Frame rate : 46.875 FPS (1024 spf)
Compression mode : Lossy
Stream size : 1 001 KiB (6%)
Default : Yes
Alternate group : 1
Для просмотра скрытого содержимого необходимо Войти или Зарегистрироваться.
 
Последнее редактирование:

Elena

Неизвестный
Новенький
Сообщения
2
Баллы
1
Это не "Тайны следствия - 18 сезон". 18 сезон отснят и сейчас монтируется и озвучивается. Новый сезон будет состоять из 24 серий (как и предыдущий), большинство из которых снял Егор Баринов. А это кадры со съемочной площадки спин-офа "Тайн". Рабочее название "Тайны следствия - 19 век" ( или "Тайны следствия. Прошлый век"). Режиссер - Жанна Коханова. По предварительным данным, в пробном сезоне участвуют А.Ковальчук, А.Чевычелов, А. Довлатова, И.Григорьев,А. Шарков, О.Алмазов. Как раз в эти дни для съемок перекрывают центр города. Съемки начались 6 октября и продлятся до конца ноября.
"ТАЙНЫ СЛЕДСТВИЯ. ПРОШЛЫЙ ВЕК".
Друзья, рады сообщить вам, что уже в октябре запускается новый амбициозный проект - спин-офф сериала "Тайны Следствия". Экспериментальный сезон расскажет нам, что было бы, если бы наши любимые герои жили в 20 веке. Встречайте: "Тайны Следствия. Прошлый век".
P.S.:Прошу прощения,если как-то не по правилам разместила фото.
 
Последнее редактирование:

admin

Мега активный
Команда форума
Администратор
Сообщения
718
Баллы
89
Спасибо за информацию. Я думал, что 19 веку будет посвящена одна из серий. А оказывается это другой проект.
 

admin

Мега активный
Команда форума
Администратор
Сообщения
718
Баллы
89

admin

Мега активный
Команда форума
Администратор
Сообщения
718
Баллы
89

admin

Мега активный
Команда форума
Администратор
Сообщения
718
Баллы
89

Оригинальное название: Тайны следствия «Прошлый век» [1] [отрывок] FULLHD
Продолжительность:
00:04:26
Качество: mp4
Разрешение: 1920x1080
Размер: 228,0 mb
Общее
Полное имя : tspv-1.mp4
Формат : MPEG-4
Профиль формата : Base Media
Идентификатор кодека : isom (isom/iso2/avc1/mp41)
Размер файла : 229 Мбайт
Продолжительность : 4 м. 25 с.
Общий поток : 7213 Кбит/сек

Видео
Идентификатор : 1
Формат : AVC
Формат/Информация : Advanced Video Codec
Профиль формата : Main@L4.2
Настройки формата : CABAC / 4 Ref Frames
Параметр CABAC формата : Да
Параметр RefFrames формата : 4 кадра
Параметр GOP формата : M=1, N=13
Идентификатор кодека : avc1
Идентификатор кодека/Информация : Advanced Video Coding
Продолжительность : 4 м. 25 с.
Битрейт : 7009 Кбит/сек
Ширина : 1920 пикселей
Высота : 1080 пикселей
Соотношение сторон : 16:9
Режим частоты кадров : Постоянный
Частота кадров : 30,000 кадров/сек
Стандарт вещания : Component
Цветовое пространство : YUV
Субдискретизация насыщенности : 4:2:0
Битовая глубина : 8 бит
Тип развёртки : Прогрессивная
Бит/(Пиксели*Кадры) : 0.113
Размер потока : 222 Мбайт (97%)
Цветовой диапазон : Limited
Codec configuration box : avcC

Аудио
Идентификатор : 2
Формат : AAC LC
Формат/Информация : Advanced Audio Codec Low Complexity
Идентификатор кодека : mp4a-40-2
Продолжительность : 4 м. 25 с.
Вид битрейта : Постоянный
Битрейт : 196 Кбит/сек
Каналы : 2 канала
ChannelLayout : L R
Частота : 44,1 КГц
Частота кадров : 43,066 кадра/сек (1024 SPF)
Метод сжатия : С потерями
Размер потока : 6,21 Мбайт (3%)
Default : Да
AlternateGroup/String : 1
Для просмотра скрытого содержимого необходимо Войти или Зарегистрироваться.
 
Последнее редактирование:

admin

Мега активный
Команда форума
Администратор
Сообщения
718
Баллы
89

Оригинальное название: Тайны следствия «Прошлый век» [2] [отрывок] FULLHD
Продолжительность:
00:02:58
Качество: mp4
Разрешение: 1920x1080
Размер: 153,0 mb
Общее
Полное имя : tspv-2.mp4
Формат : MPEG-4
Профиль формата : Base Media
Идентификатор кодека : isom (isom/iso2/avc1/mp41)
Размер файла : 153 Мбайт
Продолжительность : 2 м. 58 с.
Общий поток : 7223 Кбит/сек

Видео
Идентификатор : 1
Формат : AVC
Формат/Информация : Advanced Video Codec
Профиль формата : Main@L4.2
Настройки формата : CABAC / 4 Ref Frames
Параметр CABAC формата : Да
Параметр RefFrames формата : 4 кадра
Параметр GOP формата : M=1, N=13
Идентификатор кодека : avc1
Идентификатор кодека/Информация : Advanced Video Coding
Продолжительность : 2 м. 58 с.
Битрейт : 7019 Кбит/сек
Ширина : 1920 пикселей
Высота : 1080 пикселей
Соотношение сторон : 16:9
Режим частоты кадров : Постоянный
Частота кадров : 30,000 кадров/сек
Стандарт вещания : Component
Цветовое пространство : YUV
Субдискретизация насыщенности : 4:2:0
Битовая глубина : 8 бит
Тип развёртки : Прогрессивная
Бит/(Пиксели*Кадры) : 0.113
Размер потока : 149 Мбайт (97%)
Цветовой диапазон : Limited
Codec configuration box : avcC

Аудио
Идентификатор : 2
Формат : AAC LC
Формат/Информация : Advanced Audio Codec Low Complexity
Идентификатор кодека : mp4a-40-2
Продолжительность : 2 м. 57 с.
Вид битрейта : Постоянный
Битрейт : 196 Кбит/сек
Каналы : 2 канала
ChannelLayout : L R
Частота : 44,1 КГц
Частота кадров : 43,066 кадра/сек (1024 SPF)
Метод сжатия : С потерями
Размер потока : 4,16 Мбайт (3%)
Default : Да
AlternateGroup/String : 1
Для просмотра скрытого содержимого необходимо Войти или Зарегистрироваться.
 
Последнее редактирование:

admin

Мега активный
Команда форума
Администратор
Сообщения
718
Баллы
89

Оригинальное название: Тайны следствия «Прошлый век» [3] [отрывок] FULLHD
Продолжительность:
00:01:18
Качество: mp4
Разрешение: 1920x1080
Размер: 67,9 mb
Общее
Полное имя : tspv-3.mp4
Формат : MPEG-4
Профиль формата : Base Media
Идентификатор кодека : isom (isom/iso2/avc1/mp41)
Размер файла : 67,9 Мбайт
Продолжительность : 1 м. 18 с.
Общий поток : 7247 Кбит/сек

Видео
Идентификатор : 1
Формат : AVC
Формат/Информация : Advanced Video Codec
Профиль формата : Main@L4.2
Настройки формата : CABAC / 4 Ref Frames
Параметр CABAC формата : Да
Параметр RefFrames формата : 4 кадра
Параметр GOP формата : M=1, N=13
Идентификатор кодека : avc1
Идентификатор кодека/Информация : Advanced Video Coding
Продолжительность : 1 м. 18 с.
Битрейт : 7042 Кбит/сек
Ширина : 1920 пикселей
Высота : 1080 пикселей
Соотношение сторон : 16:9
Режим частоты кадров : Постоянный
Частота кадров : 30,000 кадров/сек
Стандарт вещания : Component
Цветовое пространство : YUV
Субдискретизация насыщенности : 4:2:0
Битовая глубина : 8 бит
Тип развёртки : Прогрессивная
Бит/(Пиксели*Кадры) : 0.113
Размер потока : 66,0 Мбайт (97%)
Цветовой диапазон : Limited
Codec configuration box : avcC

Аудио
Идентификатор : 2
Формат : AAC LC
Формат/Информация : Advanced Audio Codec Low Complexity
Идентификатор кодека : mp4a-40-2
Продолжительность : 1 м. 18 с.
Вид битрейта : Постоянный
Битрейт : 192 Кбит/сек
Каналы : 2 канала
ChannelLayout : L R
Частота : 44,1 КГц
Частота кадров : 43,066 кадра/сек (1024 SPF)
Метод сжатия : С потерями
Размер потока : 1,83 Мбайт (3%)
Default : Да
AlternateGroup/String : 1
Для просмотра скрытого содержимого необходимо Войти или Зарегистрироваться.
 
Последнее редактирование:


Сверху Снизу