• Уважаемые посетители! По тех. причинам регистрация отключена!

Видео Театральный фестиваль «Сахалинская рампа» [22-23 июня, 2017]

admin

Супер активный
Команда форума
Сообщения
402
Симпатии
7
Баллы
34
#1

Оригинальное название: Театральный фестиваль Сахалинская рампа [22-23 июня, 2017] ОТВ Сахалин
Жанр: Интервью
Продолжительность: 00:02:25
Качество: mp4
Разрешение: 654x480
Размер: 13,9 мб.
General
Complete name : Театральный фестиваль Сахалинская рампа [22 июня, 2017] ОТВ Сахалин.mp4
Format : MPEG-4
Format profile : Base Media
Codec ID : isom (isom/iso2/avc1/mp41)
File size : 14.0 MiB
Duration : 2 min
Overall bit rate mode : Variable
Overall bit rate : 803 kb/s
Writing application : Lavf55.33.100

Video
ID : 1
Format : AVC
Format/Info : Advanced Video Codec
Format profile : High@L3
Format settings, CABAC : Yes
Format settings, ReFrames : 3 frames
Codec ID : avc1
Codec ID/Info : Advanced Video Coding
Duration : 2 min
Bit rate : 697 kb/s
Width : 654 pixels
Height : 480 pixels
Display aspect ratio : 4:3
Frame rate mode : Constant
Frame rate : 25.000 FPS
Color space : YUV
Chroma subsampling : 4:2:0
Bit depth : 8 bits
Scan type : Progressive
Bits/(Pixel*Frame) : 0.089
Stream size : 12.1 MiB (87%)
Writing library : x264 core 142 r2455 021c0dc
Encoding settings : cabac=1 / ref=3 / deblock=1:0:0 / analyse=0x3:0x113 / me=hex / subme=7 / psy=1 / psy_rd=1.00:0.00 / mixed_ref=1 / me_range=16 / chroma_me=1 / trellis=1 / 8x8dct=1 / cqm=0 / deadzone=21,11 / fast_pskip=1 / chroma_qp_offset=-4 / threads=4 / lookahead_threads=1 / sliced_threads=0 / nr=0 / decimate=1 / interlaced=0 / bluray_compat=0 / constrained_intra=0 / bframes=0 / weightp=2 / keyint=250 / keyint_min=25 / scenecut=40 / intra_refresh=0 / rc=crf / mbtree=0 / crf=23.0 / qcomp=0.60 / qpmin=4 / qpmax=69 / qpstep=4 / ip_ratio=1.40 / aq=1:1.00

Audio
ID : 2
Format : AAC
Format/Info : Advanced Audio Codec
Format profile : LC
Codec ID : 40
Duration : 2 min
Bit rate mode : Variable
Bit rate : 105 kb/s
Maximum bit rate : 128 kb/s
Channel(s) : 2 channels
Channel positions : Front: L R
Sampling rate : 48.0 kHz
Frame rate : 46.875 FPS (1024 spf)
Compression mode : Lossy
Stream size : 1.83 MiB (13%)
Default : Yes
Alternate group : 1
Для просмотра содержимого вам необходимо авторизоваться.
 
Последнее редактирование:

admin

Супер активный
Команда форума
Сообщения
402
Симпатии
7
Баллы
34
#2
PRO Чехов-центр [Александр Ли и Илья Романов] «Сахалинская рампа» [22-23 июня, 2017]

Оригинальное название: PRO Чехов-центр [Александр Ли и Илья Романов] «Сахалинская рампа» [22-23 июня, 2017] - (Отрывок)
Жанр: Репортаж
Продолжительность: 00:03:33
Качество: mp4
Разрешение: 1920x1080
Размер: 148 мб.
General
Complete name :«Сахалинская рампа» [22-23 июня, 2017] PRO Чехов-центр [Александр Ли и Илья Романов].mp4
Format : MPEG-4
Format profile : Base Media
Codec ID : isom (isom/iso2/avc1/mp41)
File size : 149 MiB
Duration : 3 min
Overall bit rate mode : Variable
Overall bit rate : 5 849 kb/s
Writing application : Lavf55.33.100

Video
ID : 1
Format : AVC
Format/Info : Advanced Video Codec
Format profile : High@L4
Format settings, CABAC : Yes
Format settings, ReFrames : 3 frames
Codec ID : avc1
Codec ID/Info : Advanced Video Coding
Duration : 3 min
Bit rate : 5 736 kb/s
Width : 1 920 pixels
Height : 1 080 pixels
Display aspect ratio : 16:9
Frame rate mode : Variable
Frame rate : 29.970 (29970/1000) FPS
Minimum frame rate : 14.985 FPS
Maximum frame rate : 29.970 FPS
Color space : YUV
Chroma subsampling : 4:2:0
Bit depth : 8 bits
Scan type : Progressive
Bits/(Pixel*Frame) : 0.092
Stream size : 145 MiB (98%)
Writing library : x264 core 142 r2455 021c0dc
Encoding settings : cabac=1 / ref=3 / deblock=1:0:0 / analyse=0x3:0x113 / me=hex / subme=7 / psy=1 / psy_rd=1.00:0.00 / mixed_ref=1 / me_range=16 / chroma_me=1 / trellis=1 / 8x8dct=1 / cqm=0 / deadzone=21,11 / fast_pskip=1 / chroma_qp_offset=-4 / threads=4 / lookahead_threads=1 / sliced_threads=0 / nr=0 / decimate=1 / interlaced=0 / bluray_compat=0 / constrained_intra=0 / bframes=0 / weightp=2 / keyint=250 / keyint_min=25 / scenecut=40 / intra_refresh=0 / rc=crf / mbtree=0 / crf=23.0 / qcomp=0.60 / qpmin=4 / qpmax=69 / qpstep=4 / ip_ratio=1.40 / aq=1:1.00

Audio
ID : 2
Format : AAC
Format/Info : Advanced Audio Codec
Format profile : LC
Codec ID : 40
Duration : 3 min
Bit rate mode : Variable
Bit rate : 126 kb/s
Maximum bit rate : 128 kb/s
Channel(s) : 2 channels
Channel positions : Front: L R
Sampling rate : 48.0 kHz
Frame rate : 46.875 FPS (1024 spf)
Compression mode : Lossy
Stream size : 3.21 MiB (2%)
Default : Yes
Alternate group : 1
Для просмотра содержимого вам необходимо авторизоваться.
 
Последнее редактирование:
Вверх Снизу