• Уважаемые посетители! По тех. причинам регистрация отключена!

Видео Телешоу «Танцы со звездами» [А. Ковальчук & Г. Мажирин] [15.03 - 14.06.2009]

admin

Супер активный
Команда форума
Сообщения
402
Симпатии
7
Баллы
34
#1

О проекте:
В телешоу «Танцы со звездами» принимают участие звезды эстрады, кино и телевидения, а помогают им в постижении азов бальных танцев профессиональные танцоры. Каждую неделю один из участников выбывает. Последний тур определит победителя.
Судить конкурсантов будет профессиональное и очень строгое жюри. В этом сезоне проект обновился: теперь членов жюри пять, двое из которых - приглашенные звезды - будут меняться каждую неделю.
А также новые ведущие шоу - Максим Галкин и Дарья Спиридонова - всячески поддержат участников и создадут атмосферу праздника на паркете.
Еще одна особенность нового сезона: несколько первых программ выйдут в записи, затем у телезрителей будет возможность наблюдать за происходящим в прямом эфире!
В каждом выпуске программы в качестве гостей выступают Ольга и Сергей Коновальцевы - вице-чемпионы России, многократные финалисты чемпионатов Европы и мира, обладатели Кубка Европы.

Участники проекта:
1. Анна Ковальчук - Герман Мажирин
2. Юрий Аскаров - Арина Наумова
3. Сергей Астахов - Светлана Богданова
4. Елена Воробей - Кирилл Никитин
5. Владимир Епифанцев - Анастасия Новожилова
6. Наталья Бочкарева - Александр Литвиненко
7. Елена Захарова - Дмитрий Черныш
8. Ираклий Пирцхалава - Инна Свечникова
9. Анна Попова - Ян Гальперин
10. Александр Суворов - Арина Наумова
11. Анастасия Чернобровина - Денис Каспер
12. Юля Савичева - Евгений Папунаишвили
14. Кирилл Плетнев - Дарья Резникова

Жюри:
Президент Русского танцевального союза Станислав Попов;
Народный артист России, лауреат Государственных премий РФ, лауреат международных конкурсов артистов балета Николай Цискаридзе;
Режиссер и хореограф Алла Сигалова;
Два члена жюри - приглашенные звезды - меняются каждую неделю;

Но, как всегда, решающее слово за телезрителями. С помощью sms-голосования зрители смогут поддержать или даже спасти своих фаворитов от вылета из проекта.

Ведущие:
Максим Галкин и Дарья Спиридонова

Если Вы располагаете дополнительной информацией, то, пожалуйста, напишите письмо администрации! Будем очень признательны за помощь.
 
Последнее редактирование:

admin

Супер активный
Команда форума
Сообщения
402
Симпатии
7
Баллы
34
#2

Название: Телешоу «Танцы со звездами» - [15.03.09]
Участники проекта: Анна Ковальчук - Герман Мажирин
Страна: Россия, ВГТРК Россия 1
Жанр: Телешоу
General
Complete name : Танцы со звездами 2009 - 15.03.09.avi
Format : AVI
Format/Info : Audio Video Interleave
File size : 76.8 MiB
Duration : 2 h 27 min
Overall bit rate mode : Variable
Overall bit rate : 72.6 kb/s
Writing application : VirtualDubMod 1.5.4.1 (build 2178/release)
Writing library : VirtualDubMod build 2178/release

Video
ID : 0
Format : MPEG-4 Visual
Format profile : Advanced Simple@L5
Format settings, BVOP : 1
Format settings, QPel : No
Format settings, GMC : No warppoints
Format settings, Matrix : Custom
Codec ID : XVID
Codec ID/Hint : XviD
Duration : 7 min
Bit rate : 1 295 kb/s
Width : 720 pixels
Height : 544 pixels
Display aspect ratio : 4:3
Frame rate : 25.000 FPS
Color space : YUV
Chroma subsampling : 4:2:0
Bit depth : 8 bits
Scan type : Progressive
Compression mode : Lossy
Bits/(Pixel*Frame) : 0.132
Stream size : 70.3 MiB (92%)
Writing library : XviD 1.2.1 (UTC 2008-12-04)

Audio
ID : 1
Format : MPEG Audio
Format version : Version 1
Format profile : Layer 3
Mode : Joint stereo
Mode extension : MS Stereo
Codec ID : 55
Codec ID/Hint : MP3
Duration : 2 h 27 min
Source duration : 7 min
Bit rate mode : Variable
Bit rate : 107 kb/s
Nominal bit rate : 128 kb/s
Channel(s) : 2 channels
Sampling rate : 48.0 kHz
Compression mode : Lossy
Stream size : 5.80 MiB (8%)
Alignment : Aligned on interleaves
Interleave, duration : 24 ms (0.60 video frame)
Interleave, preload duratio : 508 ms
Writing library : LAME3.98r
Encoding settings : -m j -V 4 -q 2 -lowpass 17 --abr 128
Для просмотра содержимого вам необходимо авторизоваться.
 
Последнее редактирование:

admin

Супер активный
Команда форума
Сообщения
402
Симпатии
7
Баллы
34
#3

Название: Телешоу «Танцы со звездами» - [22.03.09]
Участники проекта: Анна Ковальчук - Герман Мажирин
Страна: Россия, ВГТРК Россия 1
Жанр: Телешоу
General
Complete name : Танцы со звездами 2009 - 22.03.09.avi
Format : AVI
Format/Info : Audio Video Interleave
File size : 93.8 MiB
Duration : 2 h 19 min
Overall bit rate mode : Variable
Overall bit rate : 92.9 kb/s
Writing application : VirtualDubMod 1.5.4.1 (build 2178/release)
Writing library : VirtualDubMod build 2178/release

Video
ID : 0
Format : MPEG-4 Visual
Format profile : Advanced Simple@L5
Format settings, BVOP : 1
Format settings, QPel : No
Format settings, GMC : No warppoints
Format settings, Matrix : Custom
Codec ID : XVID
Codec ID/Hint : XviD
Duration : 8 min
Bit rate : 1 321 kb/s
Width : 720 pixels
Height : 544 pixels
Display aspect ratio : 4:3
Frame rate : 25.000 FPS
Color space : YUV
Chroma subsampling : 4:2:0
Bit depth : 8 bits
Scan type : Progressive
Compression mode : Lossy
Bits/(Pixel*Frame) : 0.135
Stream size : 84.9 MiB (92%)
Writing library : XviD 1.2.1 (UTC 2008-12-04)

Audio
ID : 1
Format : MPEG Audio
Format version : Version 1
Format profile : Layer 3
Mode : Joint stereo
Mode extension : MS Stereo
Codec ID : 55
Codec ID/Hint : MP3
Duration : 2 h 19 min
Source duration : 9 min
Bit rate mode : Variable
Bit rate : 107 kb/s
Nominal bit rate : 128 kb/s
Channel(s) : 2 channels
Sampling rate : 48.0 kHz
Compression mode : Lossy
Stream size : 6.89 MiB (7%)
Alignment : Aligned on interleaves
Interleave, duration : 24 ms (0.60 video frame)
Interleave, preload duratio : 513 ms
Writing library : LAME3.98r
Encoding settings : -m j -V 4 -q 2 -lowpass 17 --abr 128
Для просмотра содержимого вам необходимо авторизоваться.
 
Последнее редактирование:

admin

Супер активный
Команда форума
Сообщения
402
Симпатии
7
Баллы
34
#4

Название: Телешоу «Танцы со звездами» - [29.03.09]
Участники проекта: Анна Ковальчук - Герман Мажирин
Страна: Россия, ВГТРК Россия 1
Жанр: Телешоу
General
Complete name : Танцы со звездами 2009 - 29.03.09.avi
Format : AVI
Format/Info : Audio Video Interleave
File size : 108 MiB
Duration : 2 h 14 min
Overall bit rate mode : Variable
Overall bit rate : 112 kb/s
Writing application : VirtualDubMod 1.5.4.1 (build 2178/release)
Writing library : VirtualDubMod build 2178/release

Video
ID : 0
Format : MPEG-4 Visual
Format profile : Advanced Simple@L5
Format settings, BVOP : 1
Format settings, QPel : No
Format settings, GMC : No warppoints
Format settings, Matrix : Custom
Codec ID : XVID
Codec ID/Hint : XviD
Duration : 9 min
Bit rate : 1 435 kb/s
Width : 720 pixels
Height : 544 pixels
Display aspect ratio : 4:3
Frame rate : 25.000 FPS
Color space : YUV
Chroma subsampling : 4:2:0
Bit depth : 8 bits
Scan type : Progressive
Compression mode : Lossy
Bits/(Pixel*Frame) : 0.147
Stream size : 99.8 MiB (92%)
Writing library : XviD 1.2.1 (UTC 2008-12-04)

Audio
ID : 1
Format : MPEG Audio
Format version : Version 1
Format profile : Layer 3
Mode : Joint stereo
Mode extension : MS Stereo
Codec ID : 55
Codec ID/Hint : MP3
Duration : 2 h 14 min
Source duration : 9 min
Bit rate mode : Variable
Bit rate : 108 kb/s
Nominal bit rate : 128 kb/s
Channel(s) : 2 channels
Sampling rate : 48.0 kHz
Compression mode : Lossy
Stream size : 7.50 MiB (7%)
Alignment : Aligned on interleaves
Interleave, duration : 24 ms (0.60 video frame)
Interleave, preload duratio : 478 ms
Writing library : LAME3.98r
Encoding settings : -m j -V 4 -q 2 -lowpass 17 --abr 128
Для просмотра содержимого вам необходимо авторизоваться.
 
Последнее редактирование:

admin

Супер активный
Команда форума
Сообщения
402
Симпатии
7
Баллы
34
#5

Название: Телешоу «Танцы со звездами» - [05.04.09]
Участники проекта: Анна Ковальчук - Герман Мажирин
Страна: Россия, ВГТРК Россия 1
Жанр: Телешоу
General
Complete name : Танцы со звездами 2009 - 05.04.09.avi
Format : AVI
Format/Info : Audio Video Interleave
File size : 123 MiB
Duration : 2 h 9 min
Overall bit rate : 133 kb/s
Writing application : VirtualDubMod 1.5.10.2 (build 2540/release)
Writing library : VirtualDubMod build 2540/release

Video
ID : 0
Format : MPEG-4 Visual
Format profile : Advanced Simple@L5
Format settings, BVOP : 2
Format settings, QPel : No
Format settings, GMC : No warppoints
Format settings, Matrix : Default (MPEG)
Muxing mode : Packed bitstream
Codec ID : DX50
Codec ID/Hint : DivX 5
Duration : 11 min
Bit rate : 1 380 kb/s
Width : 704 pixels
Height : 528 pixels
Display aspect ratio : 4:3
Frame rate : 25.000 FPS
Color space : YUV
Chroma subsampling : 4:2:0
Bit depth : 8 bits
Scan type : Progressive
Compression mode : Lossy
Bits/(Pixel*Frame) : 0.149
Stream size : 111 MiB (91%)
Writing library : XviD 1.2.1 (UTC 2008-12-04)

Audio
ID : 1
Format : MPEG Audio
Format version : Version 1
Format profile : Layer 3
Mode : Joint stereo
Mode extension : MS Stereo
Codec ID : 55
Codec ID/Hint : MP3
Duration : 2 h 9 min
Source duration : 11 min
Bit rate mode : Constant
Bit rate : 128 kb/s
Channel(s) : 2 channels
Sampling rate : 48.0 kHz
Compression mode : Lossy
Stream size : 10.3 MiB (8%)
Alignment : Aligned on interleaves
Interleave, duration : 40 ms (1.00 video frame)
Interleave, preload duratio : 504 ms
Для просмотра содержимого вам необходимо авторизоваться.
 
Последнее редактирование:

admin

Супер активный
Команда форума
Сообщения
402
Симпатии
7
Баллы
34
#6

Название: Телешоу «Танцы со звездами» - [12.04.09]
Участники проекта: Анна Ковальчук - Герман Мажирин
Страна: Россия, ВГТРК Россия 1
Жанр: Телешоу
General
Complete name : Танцы со звездами 2009 - 12.04.09.avi
Format : AVI
Format/Info : Audio Video Interleave
File size : 128 MiB
Duration : 2 h 29 min
Overall bit rate : 119 kb/s
Writing application : VirtualDubMod 1.5.10.2 (build 2540/release)
Writing library : VirtualDubMod build 2540/release

Video
ID : 0
Format : MPEG-4 Visual
Format profile : Advanced Simple@L5
Format settings, BVOP : 2
Format settings, QPel : No
Format settings, GMC : No warppoints
Format settings, Matrix : Default (MPEG)
Muxing mode : Packed bitstream
Codec ID : DX50
Codec ID/Hint : DivX 5
Duration : 10 min
Bit rate : 1 616 kb/s
Width : 704 pixels
Height : 528 pixels
Display aspect ratio : 4:3
Frame rate : 25.000 FPS
Color space : YUV
Chroma subsampling : 4:2:0
Bit depth : 8 bits
Scan type : Progressive
Compression mode : Lossy
Bits/(Pixel*Frame) : 0.174
Stream size : 118 MiB (92%)
Writing library : XviD 1.2.1 (UTC 2008-12-04)

Audio
ID : 1
Format : MPEG Audio
Format version : Version 1
Format profile : Layer 3
Mode : Joint stereo
Mode extension : MS Stereo
Codec ID : 55
Codec ID/Hint : MP3
Duration : 2 h 29 min
Source duration : 10 min
Bit rate mode : Constant
Bit rate : 128 kb/s
Channel(s) : 2 channels
Sampling rate : 48.0 kHz
Compression mode : Lossy
Stream size : 9.36 MiB (7%)
Alignment : Aligned on interleaves
Interleave, duration : 40 ms (1.00 video frame)
Interleave, preload duratio : 504 ms
Для просмотра содержимого вам необходимо авторизоваться.
 
Последнее редактирование:

admin

Супер активный
Команда форума
Сообщения
402
Симпатии
7
Баллы
34
#7

Название: Телешоу «Танцы со звездами» - [19.04.09]
Участники проекта: Анна Ковальчук - Герман Мажирин
Страна: Россия, ВГТРК Россия 1
Жанр: Телешоу
General
Complete name : Танцы со звездами 2009 - 19.04.09.avi
Format : AVI
Format/Info : Audio Video Interleave
File size : 142 MiB
Duration : 11 min
Overall bit rate : 1 753 kb/s
Writing library : VirtualDub build 31536/release

Video
ID : 0
Format : MPEG-4 Visual
Format settings, BVOP : 1
Format settings, QPel : No
Format settings, GMC : No warppoints
Format settings, Matrix : Default (H.263)
Muxing mode : Packed bitstream
Codec ID : DX50
Codec ID/Hint : DivX 5
Duration : 11 min
Bit rate : 1 616 kb/s
Width : 704 pixels
Height : 528 pixels
Display aspect ratio : 4:3
Frame rate : 25.000 FPS
Color space : YUV
Chroma subsampling : 4:2:0
Bit depth : 8 bits
Scan type : Progressive
Compression mode : Lossy
Bits/(Pixel*Frame) : 0.174
Stream size : 131 MiB (92%)
Writing library : DivX 6.8.5 (UTC 2009-08-20)

Audio
ID : 1
Format : MPEG Audio
Format version : Version 1
Format profile : Layer 3
Mode : Joint stereo
Mode extension : MS Stereo
Codec ID : 55
Codec ID/Hint : MP3
Duration : 11 min
Source duration : 11 min
Bit rate mode : Constant
Bit rate : 128 kb/s
Channel(s) : 2 channels
Sampling rate : 48.0 kHz
Compression mode : Lossy
Stream size : 10.4 MiB (7%)
Alignment : Split accross interleaves
Interleave, duration : 40 ms (1.00 video frame)
Interleave, preload duratio : 500 ms
Для просмотра содержимого вам необходимо авторизоваться.
 
Последнее редактирование:

admin

Супер активный
Команда форума
Сообщения
402
Симпатии
7
Баллы
34
#8

Название: Телешоу «Танцы со звездами» - [26.04.09]
Участники проекта: Анна Ковальчук - Герман Мажирин
Страна: Россия, ВГТРК Россия 1
Жанр: Телешоу
General
Complete name : Танцы со звездами 2009 - 26.04.09.avi
Format : AVI
Format/Info : Audio Video Interleave
File size : 30.3 MiB
Duration : 2 min
Overall bit rate : 1 850 kb/s
Writing library : VirtualDub build 31536/release

Video
ID : 0
Format : MPEG-4 Visual
Format settings, BVOP : 1
Format settings, QPel : No
Format settings, GMC : No warppoints
Format settings, Matrix : Default (H.263)
Muxing mode : Packed bitstream
Codec ID : DX50
Codec ID/Hint : DivX 5
Duration : 2 min
Bit rate : 1 718 kb/s
Width : 704 pixels
Height : 528 pixels
Display aspect ratio : 4:3
Frame rate : 25.000 FPS
Color space : YUV
Chroma subsampling : 4:2:0
Bit depth : 8 bits
Scan type : Progressive
Compression mode : Lossy
Bits/(Pixel*Frame) : 0.185
Stream size : 28.1 MiB (93%)
Writing library : DivX 6.8.5 (UTC 2009-08-20)

Audio
ID : 1
Format : MPEG Audio
Format version : Version 1
Format profile : Layer 3
Mode : Joint stereo
Mode extension : MS Stereo
Codec ID : 55
Codec ID/Hint : MP3
Duration : 2 min
Source duration : 2 min
Bit rate mode : Constant
Bit rate : 128 kb/s
Channel(s) : 2 channels
Sampling rate : 48.0 kHz
Compression mode : Lossy
Stream size : 2.10 MiB (7%)
Alignment : Split accross interleaves
Interleave, duration : 40 ms (1.00 video frame)
Interleave, preload duratio : 500 ms
Для просмотра содержимого вам необходимо авторизоваться.
 
Последнее редактирование:

admin

Супер активный
Команда форума
Сообщения
402
Симпатии
7
Баллы
34
#9

Название: Телешоу «Танцы со звездами» - [03.05.09]
Участники проекта: Анна Ковальчук - Герман Мажирин
Страна: Россия, ВГТРК Россия 1
Жанр: Телешоу
General
Complete name : Танцы со звездами 2009 - 03.05.09.avi
Format : AVI
Format/Info : Audio Video Interleave
File size : 112 MiB
Duration : 2 h 33 min
Overall bit rate : 102 kb/s
Writing application : VirtualDubMod 1.5.4.1 (build 2178/release)
Writing library : VirtualDubMod build 2178/release

Video
ID : 0
Format : MPEG-4 Visual
Format profile : Advanced Simple@L5
Format settings, BVOP : 1
Format settings, QPel : No
Format settings, GMC : No warppoints
Format settings, Matrix : Custom
Codec ID : XVID
Codec ID/Hint : XviD
Duration : 10 min
Bit rate : 1 310 kb/s
Width : 720 pixels
Height : 544 pixels
Display aspect ratio : 4:3
Frame rate : 25.000 FPS
Color space : YUV
Chroma subsampling : 4:2:0
Bit depth : 8 bits
Scan type : Progressive
Compression mode : Lossy
Bits/(Pixel*Frame) : 0.134
Stream size : 102 MiB (91%)
Writing library : XviD 1.2.1 (UTC 2008-12-04)

Audio
ID : 1
Format : MPEG Audio
Format version : Version 1
Format profile : Layer 3
Mode : Joint stereo
Mode extension : MS Stereo
Codec ID : 55
Codec ID/Hint : MP3
Duration : 2 h 33 min
Source duration : 10 min
Bit rate mode : Constant
Bit rate : 128 kb/s
Channel(s) : 2 channels
Sampling rate : 48.0 kHz
Compression mode : Lossy
Stream size : 9.95 MiB (9%)
Alignment : Aligned on interleaves
Interleave, duration : 80 ms (2.00 video frames)
Interleave, preload duratio : 504 ms
Writing library : LAME3.98r
Encoding settings : -m j -V 4 -q 2 -lowpass 17 -b 128
Для просмотра содержимого вам необходимо авторизоваться.
 
Последнее редактирование:

admin

Супер активный
Команда форума
Сообщения
402
Симпатии
7
Баллы
34
#10

Название: Телешоу «Танцы со звездами» - [11.05.09]
Участники проекта: Анна Ковальчук - Герман Мажирин
Страна: Россия, ВГТРК Россия 1
Жанр: Телешоу
General
Complete name : Танцы со звездами 2009 - 11.05.09.avi
Format : AVI
Format/Info : Audio Video Interleave
File size : 96.1 MiB
Duration : 2 h 18 min
Overall bit rate : 97.1 kb/s
Writing application : VirtualDubMod 1.5.4.1 (build 2178/release)
Writing library : VirtualDubMod build 2178/release

Video
ID : 0
Format : MPEG-4 Visual
Format profile : Simple@L3
Format settings, BVOP : 1
Format settings, QPel : No
Format settings, GMC : No warppoints
Format settings, Matrix : Custom
Codec ID : XVID
Codec ID/Hint : XviD
Duration : 9 min
Bit rate : 1 334 kb/s
Width : 704 pixels
Height : 528 pixels
Display aspect ratio : 4:3
Frame rate : 25.000 FPS
Color space : YUV
Chroma subsampling : 4:2:0
Bit depth : 8 bits
Scan type : Progressive
Compression mode : Lossy
Bits/(Pixel*Frame) : 0.144
Stream size : 87.2 MiB (91%)
Writing library : XviD 1.1.0 Beta2 (UTC 2005-04-04)

Audio
ID : 1
Format : MPEG Audio
Format version : Version 1
Format profile : Layer 3
Mode : Joint stereo
Mode extension : MS Stereo
Codec ID : 55
Codec ID/Hint : MP3
Duration : 2 h 18 min
Source duration : 9 min
Bit rate mode : Constant
Bit rate : 128 kb/s
Channel(s) : 2 channels
Sampling rate : 48.0 kHz
Compression mode : Lossy
Stream size : 8.38 MiB (9%)
Alignment : Aligned on interleaves
Interleave, duration : 80 ms (2.00 video frames)
Interleave, preload duratio : 504 ms
Writing library : LAME3.98r
Encoding settings : -m j -V 4 -q 2 -lowpass 17 -b 128
Для просмотра содержимого вам необходимо авторизоваться.
 
Последнее редактирование:

admin

Супер активный
Команда форума
Сообщения
402
Симпатии
7
Баллы
34
#11

Название: Телешоу «Танцы со звездами» - [17.05.09]
Участники проекта: Анна Ковальчук - Герман Мажирин
Страна: Россия, ВГТРК Россия 1
Жанр: Телешоу
General
Complete name : Танцы со звездами 2009 - 17.05.09.avi
Format : AVI
Format/Info : Audio Video Interleave
File size : 158 MiB
Duration : 13 min
Overall bit rate : 1 627 kb/s
Writing library : VirtualDub build 31536/release

Video
ID : 0
Format : MPEG-4 Visual
Format settings, BVOP : 1
Format settings, QPel : No
Format settings, GMC : No warppoints
Format settings, Matrix : Default (H.263)
Muxing mode : Packed bitstream
Codec ID : DX50
Codec ID/Hint : DivX 5
Duration : 13 min
Bit rate : 1 491 kb/s
Width : 704 pixels
Height : 528 pixels
Display aspect ratio : 4:3
Frame rate : 25.000 FPS
Color space : YUV
Chroma subsampling : 4:2:0
Bit depth : 8 bits
Scan type : Progressive
Compression mode : Lossy
Bits/(Pixel*Frame) : 0.160
Stream size : 145 MiB (92%)
Writing library : DivX 6.8.5 (UTC 2009-08-20)

Audio
ID : 1
Format : MPEG Audio
Format version : Version 1
Format profile : Layer 3
Mode : Joint stereo
Mode extension : MS Stereo
Codec ID : 55
Codec ID/Hint : MP3
Duration : 13 min
Source duration : 13 min
Bit rate mode : Constant
Bit rate : 128 kb/s
Channel(s) : 2 channels
Sampling rate : 48.0 kHz
Compression mode : Lossy
Stream size : 12.4 MiB (8%)
Alignment : Split accross interleaves
Interleave, duration : 40 ms (1.00 video frame)
Interleave, preload duratio : 500 ms
Для просмотра содержимого вам необходимо авторизоваться.
 
Последнее редактирование:

admin

Супер активный
Команда форума
Сообщения
402
Симпатии
7
Баллы
34
#12

Название: Телешоу «Танцы со звездами» - [24.05.09]
Участники проекта: Анна Ковальчук - Герман Мажирин
Страна: Россия, ВГТРК Россия 1
Жанр: Телешоу
General
Complete name : Танцы со звездами 2009 - 24.05.09.avi
Format : AVI
Format/Info : Audio Video Interleave
File size : 165 MiB
Duration : 14 min
Overall bit rate : 1 629 kb/s
Writing library : VirtualDub build 31536/release

Video
ID : 0
Format : MPEG-4 Visual
Format settings, BVOP : 1
Format settings, QPel : No
Format settings, GMC : No warppoints
Format settings, Matrix : Default (H.263)
Muxing mode : Packed bitstream
Codec ID : DX50
Codec ID/Hint : DivX 5
Duration : 14 min
Bit rate : 1 492 kb/s
Width : 704 pixels
Height : 528 pixels
Display aspect ratio : 4:3
Frame rate : 25.000 FPS
Color space : YUV
Chroma subsampling : 4:2:0
Bit depth : 8 bits
Scan type : Progressive
Compression mode : Lossy
Bits/(Pixel*Frame) : 0.161
Stream size : 151 MiB (92%)
Writing library : DivX 6.8.5 (UTC 2009-08-20)

Audio
ID : 1
Format : MPEG Audio
Format version : Version 1
Format profile : Layer 3
Mode : Joint stereo
Mode extension : MS Stereo
Codec ID : 55
Codec ID/Hint : MP3
Duration : 14 min
Source duration : 14 min
Bit rate mode : Constant
Bit rate : 128 kb/s
Channel(s) : 2 channels
Sampling rate : 48.0 kHz
Compression mode : Lossy
Stream size : 13.0 MiB (8%)
Alignment : Split accross interleaves
Interleave, duration : 40 ms (1.00 video frame)
Interleave, preload duratio : 500 ms
Для просмотра содержимого вам необходимо авторизоваться.
 
Последнее редактирование:

admin

Супер активный
Команда форума
Сообщения
402
Симпатии
7
Баллы
34
#13

Название: Телешоу «Танцы со звездами» - [31.05.09]
Участники проекта: Анна Ковальчук - Герман Мажирин
Страна: Россия, ВГТРК Россия 1
Жанр: Телешоу
General
Complete name : Танцы со звездами 2009 - 31.05.09.avi
Format : AVI
Format/Info : Audio Video Interleave
File size : 143 MiB
Duration : 11 min
Overall bit rate : 1 702 kb/s
Writing library : VirtualDub build 31536/release

Video
ID : 0
Format : MPEG-4 Visual
Format settings, BVOP : 1
Format settings, QPel : No
Format settings, GMC : No warppoints
Format settings, Matrix : Default (H.263)
Muxing mode : Packed bitstream
Codec ID : DX50
Codec ID/Hint : DivX 5
Duration : 11 min
Bit rate : 1 565 kb/s
Width : 704 pixels
Height : 528 pixels
Display aspect ratio : 4:3
Frame rate : 25.000 FPS
Color space : YUV
Chroma subsampling : 4:2:0
Bit depth : 8 bits
Scan type : Progressive
Compression mode : Lossy
Bits/(Pixel*Frame) : 0.168
Stream size : 131 MiB (92%)
Writing library : DivX 6.8.5 (UTC 2009-08-20)

Audio
ID : 1
Format : MPEG Audio
Format version : Version 1
Format profile : Layer 3
Mode : Joint stereo
Mode extension : MS Stereo
Codec ID : 55
Codec ID/Hint : MP3
Duration : 11 min
Source duration : 11 min
Bit rate mode : Constant
Bit rate : 128 kb/s
Channel(s) : 2 channels
Sampling rate : 48.0 kHz
Compression mode : Lossy
Stream size : 10.7 MiB (8%)
Alignment : Split accross interleaves
Interleave, duration : 40 ms (1.00 video frame)
Interleave, preload duratio : 500 ms
Для просмотра содержимого вам необходимо авторизоваться.
 
Последнее редактирование:

admin

Супер активный
Команда форума
Сообщения
402
Симпатии
7
Баллы
34
#14

Название: Телешоу «Танцы со звездами» - [07.06.09]
Участники проекта: Анна Ковальчук - Герман Мажирин
Страна: Россия, ВГТРК Россия 1
Жанр: Телешоу
General
Complete name : Танцы со звездами 2009 - 07.06.09.avi
Format : AVI
Format/Info : Audio Video Interleave
File size : 149 MiB
Duration : 12 min
Overall bit rate : 1 672 kb/s
Writing library : VirtualDub build 31536/release

Video
ID : 0
Format : MPEG-4 Visual
Format settings, BVOP : 1
Format settings, QPel : No
Format settings, GMC : No warppoints
Format settings, Matrix : Default (H.263)
Muxing mode : Packed bitstream
Codec ID : DX50
Codec ID/Hint : DivX 5
Duration : 12 min
Bit rate : 1 536 kb/s
Width : 704 pixels
Height : 528 pixels
Display aspect ratio : 4:3
Frame rate : 25.000 FPS
Color space : YUV
Chroma subsampling : 4:2:0
Bit depth : 8 bits
Scan type : Progressive
Compression mode : Lossy
Bits/(Pixel*Frame) : 0.165
Stream size : 137 MiB (92%)
Writing library : DivX 6.8.5 (UTC 2009-08-20)

Audio
ID : 1
Format : MPEG Audio
Format version : Version 1
Format profile : Layer 3
Mode : Joint stereo
Mode extension : MS Stereo
Codec ID : 55
Codec ID/Hint : MP3
Duration : 12 min
Source duration : 12 min
Bit rate mode : Constant
Bit rate : 128 kb/s
Channel(s) : 2 channels
Sampling rate : 48.0 kHz
Compression mode : Lossy
Stream size : 11.4 MiB (8%)
Alignment : Split accross interleaves
Interleave, duration : 40 ms (1.00 video frame)
Interleave, preload duratio : 500 ms
Для просмотра содержимого вам необходимо авторизоваться.
 
Последнее редактирование:

admin

Супер активный
Команда форума
Сообщения
402
Симпатии
7
Баллы
34
#15

Название: Телешоу «Танцы со звездами» - [14.06.09]
Участники проекта: Анна Ковальчук - Герман Мажирин
Страна: Россия, ВГТРК Россия 1
Жанр: Телешоу
General
Complete name :Танцы со звездами 2009 - 14.06.09.avi
Format : AVI
Format/Info : Audio Video Interleave
File size : 119 MiB
Duration : 9 min
Overall bit rate : 1 754 kb/s
Writing library : VirtualDub build 31536/release

Video
ID : 0
Format : MPEG-4 Visual
Format settings, BVOP : 1
Format settings, QPel : No
Format settings, GMC : No warppoints
Format settings, Matrix : Default (H.263)
Muxing mode : Packed bitstream
Codec ID : DX50
Codec ID/Hint : DivX 5
Duration : 9 min
Bit rate : 1 618 kb/s
Width : 704 pixels
Height : 528 pixels
Display aspect ratio : 4:3
Frame rate : 25.000 FPS
Color space : YUV
Chroma subsampling : 4:2:0
Bit depth : 8 bits
Scan type : Progressive
Compression mode : Lossy
Bits/(Pixel*Frame) : 0.174
Stream size : 109 MiB (92%)
Writing library : DivX 6.8.5 (UTC 2009-08-20)

Audio
ID : 1
Format : MPEG Audio
Format version : Version 1
Format profile : Layer 3
Mode : Joint stereo
Mode extension : MS Stereo
Codec ID : 55
Codec ID/Hint : MP3
Duration : 9 min
Source duration : 9 min
Bit rate mode : Constant
Bit rate : 128 kb/s
Channel(s) : 2 channels
Sampling rate : 48.0 kHz
Compression mode : Lossy
Delay relative to video : 16 ms
Stream size : 8.65 MiB (7%)
Alignment : Split accross interleaves
Interleave, duration : 40 ms (1.00 video frame)
Interleave, preload duratio : 500 ms
Для просмотра содержимого вам необходимо авторизоваться.
 
Последнее редактирование:

admin

Супер активный
Команда форума
Сообщения
402
Симпатии
7
Баллы
34
#16

Название: Телешоу «Танцы со звездами» - Rewarding - [14.06.09]
Участники проекта: Анна Ковальчук - Герман Мажирин
Страна: Россия, ВГТРК Россия 1
Жанр: Телешоу
General
Complete name : Танцы со звездами 2009 - 14.06.09 - Rewarding.avi
Format : AVI
Format/Info : Audio Video Interleave
File size : 20.2 MiB
Duration : 1 min
Overall bit rate : 2 160 kb/s
Writing library : VirtualDub build 31536/release

Video
ID : 0
Format : MPEG-4 Visual
Format settings, BVOP : 1
Format settings, QPel : No
Format settings, GMC : No warppoints
Format settings, Matrix : Default (H.263)
Muxing mode : Packed bitstream
Codec ID : DX50
Codec ID/Hint : DivX 5
Duration : 1 min
Bit rate : 2 035 kb/s
Width : 704 pixels
Height : 528 pixels
Display aspect ratio : 4:3
Frame rate : 25.000 FPS
Color space : YUV
Chroma subsampling : 4:2:0
Bit depth : 8 bits
Scan type : Progressive
Compression mode : Lossy
Bits/(Pixel*Frame) : 0.219
Stream size : 18.9 MiB (94%)
Writing library : DivX 6.8.5 (UTC 2009-08-20)

Audio
ID : 1
Format : MPEG Audio
Format version : Version 1
Format profile : Layer 3
Mode : Joint stereo
Mode extension : MS Stereo
Codec ID : 55
Codec ID/Hint : MP3
Duration : 1 min
Source duration : 1 min
Bit rate mode : Constant
Bit rate : 128 kb/s
Channel(s) : 2 channels
Sampling rate : 48.0 kHz
Compression mode : Lossy
Delay relative to video : 16 ms
Stream size : 1.20 MiB (6%)
Alignment : Split accross interleaves
Interleave, duration : 40 ms (1.00 video frame)
Interleave, preload duratio : 500 ms
Для просмотра содержимого вам необходимо авторизоваться.
 
Последнее редактирование:
Вверх Снизу