• Уважаемые посетители и пользователи! В настоящее время у Анны Ковальчук в инстаграм 56,8 тыс. подписчиков! Как вы уже заметили на нашем форуме есть публикации, защищенные паролем. За каждые 150 000 подписчиков в инстаграм Анны Ковальчук мы будем открывать по 2 запароленные темы. Какие именно выберем на голосовании. Т.е. для разблокировки 2-х тем на данный момент нужно чтобы у Анны в инстаграм было не 56,8 тыс. подписчиков, а 150 000! Подписываемся :)

Видео Видео различной тематики

admin

Мега активный
Команда форума
Администратор
Сообщения
756
Баллы
114

Название: ТП «Мой герой» - гость Анна Ковальчук [23.03.2020, ТВЦ]
Дата выхода: 23.03.2020
Производство: ТВЦ
Разрешение: 720x576
Продолжительность: 00:39:31
Размер: 1,09 ГБ
Общее
Полное имя : ТП «Мой герой» - гость Анна Ковальчук [23.03.2020, ТВЦ].mp4
Формат : MPEG-4
Профиль формата : Base Media / Version 2
Идентификатор кодека : mp42 (mp42/mp41)
Размер файла : 1,10 Гбайт
Продолжительность : 39 м. 30 с.
Режим общего битрейта : Переменный
Общий поток : 3986 Кбит/сек
Дата кодирования : UTC 2020-03-23 11:58:53
Дата пометки : UTC 2020-03-23 12:05:59
TIM : 00:00:00:00
TSC : 25
TSZ : 1

Видео
Идентификатор : 1
Формат : AVC
Формат/Информация : Advanced Video Codec
Профиль формата : High@L3.1
Настройки формата : CABAC / 4 Ref Frames
Параметр CABAC формата : Да
Параметр RefFrames формата : 4 кадра
Идентификатор кодека : avc1
Идентификатор кодека/Информация : Advanced Video Coding
Продолжительность : 39 м. 30 с.
Битрейт : 3793 Кбит/сек
Ширина : 720 пикселей
Высота : 576 пикселей
Соотношение сторон : 1,85:1
Режим частоты кадров : Постоянный
Частота кадров : 25,000 кадров/сек
Стандарт вещания : PAL
Цветовое пространство : YUV
Субдискретизация насыщенности : 4:2:0
Битовая глубина : 8 бит
Тип развёртки : Чересстрочная
Метод сохранения типа развёртки : Раздельные поля
Порядок развёртки : Верхнее поле первое
Бит/(Пиксели*Кадры) : 0.366
Размер потока : 1,05 Гбайт (95%)
Язык : English
Дата кодирования : UTC 2020-03-23 11:58:53
Дата пометки : UTC 2020-03-23 11:58:53
Цветовой диапазон : Limited
Основные цвета : BT.601 PAL
Характеристики трансфера : BT.470 System B/G
Коэффициенты матрицы : BT.470 System B/G
Codec configuration box : avcC

Аудио
Идентификатор : 2
Формат : AAC LC
Формат/Информация : Advanced Audio Codec Low Complexity
Идентификатор кодека : mp4a-40-2
Продолжительность : 39 м. 30 с.
Продолжительность оригинала : 39 м. 30 с.
Вид битрейта : Переменный
Битрейт : 192 Кбит/сек
Максимальный битрейт : 270 Кбит/сек
Каналы : 2 канала
ChannelLayout : L R
Частота : 48,0 КГц
Частота кадров : 46,875 кадров/сек (1024 SPF)
Метод сжатия : С потерями
Размер потока : 53,5 Мбайт (5%)
Размер потока оригинала : 53,5 Мбайт (5%)
Язык : English
Дата кодирования : UTC 2020-03-23 11:58:54
Дата пометки : UTC 2020-03-23 11:58:54
Скрытое содержимое могут видеть только пользователь группы: Member
 

admin

Мега активный
Команда форума
Администратор
Сообщения
756
Баллы
114

«Давно не виделись» — это встреча старых знакомых или просто знакомых, или просто встреча. В гости к Феликсу Невелеву приходят артисты, музыканты, спортсмены, политики. Давно не виделись — значит надо обо всем расспросить, что-то вспомнить, о чём-то сказать впервые.
Название: Т/П «Давно не виделись» [23.03.2020, 78.ru](Отрывок,FULLHD)
Жанр:
Интервью
Канал: 78 канал
Дата выхода: 23.03.2020
Разрешение: 1920x1080
Продолжительность: 00:01:40
Размер: 61,8 mb
Общее
Полное имя : ТП «Давно не виделись» [23.03.2020, 78.ru].mp4
Формат : MPEG-4
Профиль формата : Base Media / Version 2
Идентификатор кодека : mp42 (mp42/mp41)
Размер файла : 61,8 Мбайт
Продолжительность : 1 м. 40 с.
Режим общего битрейта : Переменный
Общий поток : 5179 Кбит/сек
Дата кодирования : UTC 2020-03-29 13:58:34
Дата пометки : UTC 2020-03-29 13:59:05
TIM : 00:00:00:00
TSC : 25
TSZ : 1

Видео
Идентификатор : 1
Формат : AVC
Формат/Информация : Advanced Video Codec
Профиль формата : Main@L4.1
Настройки формата : CABAC / 4 Ref Frames
Параметр CABAC формата : Да
Параметр RefFrames формата : 4 кадра
Идентификатор кодека : avc1
Идентификатор кодека/Информация : Advanced Video Coding
Продолжительность : 1 м. 40 с.
Битрейт : 4985 Кбит/сек
Ширина : 1920 пикселей
Высота : 1080 пикселей
Соотношение сторон : 16:9
Режим частоты кадров : Постоянный
Частота кадров : 25,000 кадров/сек
Цветовое пространство : YUV
Субдискретизация насыщенности : 4:2:0
Битовая глубина : 8 бит
Тип развёртки : Прогрессивная
Бит/(Пиксели*Кадры) : 0.096
Размер потока : 59,5 Мбайт (96%)
Язык : English
Дата кодирования : UTC 2020-03-29 13:58:35
Дата пометки : UTC 2020-03-29 13:58:35
Цветовой диапазон : Limited
Основные цвета : BT.709
Характеристики трансфера : BT.709
Коэффициенты матрицы : BT.709
Codec configuration box : avcC

Аудио
Идентификатор : 2
Формат : AAC LC
Формат/Информация : Advanced Audio Codec Low Complexity
Идентификатор кодека : mp4a-40-2
Продолжительность : 1 м. 40 с.
Продолжительность оригинала : 1 м. 40 с.
Вид битрейта : Переменный
Битрейт : 192 Кбит/сек
Максимальный битрейт : 248 Кбит/сек
Каналы : 2 канала
ChannelLayout : L R
Частота : 48,0 КГц
Частота кадров : 46,875 кадров/сек (1024 SPF)
Метод сжатия : С потерями
Размер потока : 2,26 Мбайт (4%)
Размер потока оригинала : 2,26 Мбайт (4%)
Язык : English
Дата кодирования : UTC 2020-03-29 13:58:35
Дата пометки : UTC 2020-03-29 13:58:35
Скрытое содержимое могут видеть только пользователь группы: Member
 


Сверху Снизу